Ссылка на приватное зеркало всего за 1$. Внимание количество ограничено!!!

OK

1+1

iTunes

мы

OK

1

WEB-DLRip

Джокер

Пифагор

Ведьмак / The Witcher сериал

Лицензия

ПШазам

ОК

Оно 2

iTunes

30
pack

Вам бонус

ВАЖНО

!!Акция!!

Alien_RageХит недели

RePack

Resident Evil 21

ИГРА 18+

pack

RePack

jed

!!Акция!!

Alien_Rage

RePack

fifa19

RePack

Assassins Creed: Odyssey

RePack

NEED FOR SPEED™ PAYBACK

4 сезон

9 сезон

Бесстыжие 9 сезон

Все сериалы

все сериалы на PB.wtf

RePack

FAR CRY 5
  

Анонимные романтики / Les émotifs anonymes (Жан-Пьерр Амери) [2010, Мелодрама, комедия, BDRip 720p] MVO (rus, ukr) pb.wtf

Анонимные романтики через торрент pb.wtf

Раздают: 2 [ 0 KB/s ]
Размер: 6.46 GB | Добавлен: 2 мес. 17 д. назад | Торрент скачан:29 раз
Скачать  

03-11-2019 17:53 Анонимные романтики Скачать торрент  

Анонимные романтики / Les émotifs anonymes
Год выпуска: 2010
Страна: Франция, Бельгия
Жанр: Мелодрама, комедия
Продолжительность: 01:17:40
Перевод: Профессиональный (многоголосый)
Субтитры: Russian, Ukrainian, French, English

Режиссер: Жан-Пьерр Амери

rating

В ролях: Бенуа Пульворд, Изабелль Карре, Лорелла Кравотта, Lise Lamйtrie, Сванн Арло, Пьере Нинье, Стефан Войтович, Жак Буде, Алис Поль, Селин Дюамель

Описание: Скромный кондитер Жан-Рене и его новая обаятельная сотрудница Анжелика - идеальная пара: они оба без ума от шоколада, романтичной музыки и парижских вечеров под развесистыми каштанами. Но оба - ужасно стеснительны, и ни один из них никак не решится сделать ответственный шаг навстречу зову сердца. Смогут ли предназначенные друг для друга возлюбленные преодолеть природную робость или так и суждено им в одиночестве посещать собрания Общества Анонимных Романтиков?

Качество: BDRip 720p
Формат: MKV

Видео: 1280x546 at 23.976 fps, AVC, 2pass, ~ 8 500kbps
Аудио#1: Russian: 48 kHz, DTS, 3/2 (L,C,R,l,r) + LFE ch, ~1509.00 kbps | Многоголосый закадровый
Аудио#2: Ukranian: 48 kHz, AC3, 3/2 (L,C,R,l,r) + LFE ch ~384.00 kbps | Многоголосый закадровый, KWA Sound Production
Аудио#3: French: 48 kHz, DTS, 3/2 (L,C,R,l,r) + LFE ch, ~1509.00 kbps
скриншот  скриншот  скриншот  скриншот  скриншот  

Общее
Уникальный идентификатор : 199358421388868561286641867158677196151 (0x95FB090C2A00E9278694B3C654498D77)
Полное имя : G:Les.emotifs.anonymes.2010.720p.BluRay.Rus.Ukr.Fre.HDCLUB.mkv
Формат : Matroska
Версия формата : Version 2
Размер файла : 6,46 Гбайт
Продолжительность : 1 ч. 17 м.
Общий поток : 11,9 Мбит/сек
Название фильма : Les émotifs anonymes (2010) - Release for HDCLUB
Дата кодирования : UTC 2016-01-11 23:26:33
Программа кодирования : mkvmerge v5.7.0 ('The Whirlwind') built on Jul 8 2012 20:08:51
Библиотека кодирования : libebml v1.2.3 + libmatroska v1.3.0

Видео
Идентификатор : 1
Формат : AVC
Формат/Информация : Advanced Video Codec
Профиль формата : High@L4.1
Параметр CABAC формата : Да
Параметр ReFrames формата : 11 кадров
Идентификатор кодека : V_MPEG4/ISO/AVC
Продолжительность : 1 ч. 17 м.
Битрейт : 8500 Кбит/сек
Ширина : 1280 пикселей
Высота : 546 пикселей
Соотношение сторон : 2,35:1
Режим частоты кадров : Постоянный
Частота кадров : 23,976 (24000/1001) кадра/сек
Цветовое пространство : YUV
Субдискретизация насыщенности : 4:2:0
Битовая глубина : 8 бит
Тип развёртки : Прогрессивная
Бит/(Пиксели*Кадры) : 0.507
Размер потока : 4,48 Гбайт (69%)
Библиотека кодирования : x264 core 125 r2200 999b753
Настройки программы : cabac=1 / ref=11 / deblock=1:-3:-3 / analyse=0x3:0x133 / me=umh / subme=11 / psy=1 / psy_rd=1.00:0.03 / mixed_ref=1 / me_range=32 / chroma_me=1 / trellis=2 / 8x8dct=1 / cqm=0 / deadzone=21,11 / fast_pskip=0 / chroma_qp_offset=-3 / threads=3 / lookahead_threads=1 / sliced_threads=0 / nr=0 / decimate=0 / interlaced=0 / bluray_compat=0 / constrained_intra=0 / bframes=9 / b_pyramid=2 / b_adapt=2 / b_bias=0 / direct=3 / weightb=1 / open_gop=0 / weightp=2 / keyint=250 / keyint_min=23 / scenecut=40 / intra_refresh=0 / rc_lookahead=60 / rc=2pass / mbtree=1 / bitrate=8500 / ratetol=1.0 / qcomp=0.75 / qpmin=0 / qpmax=69 / qpstep=4 / cplxblur=20.0 / qblur=0.5 / ip_ratio=1.40 / aq=1:0.90 / zones=7300,9700,b=1.2/10670,11666,b=1.2/45270,46900,b=1.2/59431,59934,b=1.2/60704,62162,b=1.2/63011,64198,b=1.2/78111,83233,b=1.2/107279,111737,b=0.5
Язык : French
Default : Да
Forced : Нет

Аудио #1
Идентификатор : 2
Формат : DTS
Формат/Информация : Digital Theater Systems
Режим : 16
Параметр Endianness формата : Big
Идентификатор кодека : A_DTS
Продолжительность : 1 ч. 17 м.
Вид битрейта : Постоянный
Битрейт : 1509 Кбит/сек
Каналы : 6 каналов
Расположение каналов : Front: L C R, Side: L R, LFE
Частота : 48,0 КГц
Частота кадров : 93,750 кадра/сек (512 spf)
Битовая глубина : 16 бит
Метод сжатия : С потерями
Размер потока : 839 Мбайт (13%)
Заголовок : |Многоголосый закадровый|
Язык : Russian
Default : Да
Forced : Нет

Аудио #2
Идентификатор : 3
Формат : AC-3
Формат/Информация : Audio Coding 3
Расширение режима : CM (complete main)
Параметр Endianness формата : Big
Идентификатор кодека : A_AC3
Продолжительность : 1 ч. 17 м.
Вид битрейта : Постоянный
Битрейт : 384 Кбит/сек
Каналы : 6 каналов
Расположение каналов : Front: L C R, Side: L R, LFE
Частота : 48,0 КГц
Частота кадров : 31,250 кадров/сек (1536 spf)
Метод сжатия : С потерями
Размер потока : 213 Мбайт (3%)
Заголовок : |Многоголосый закадровый, KWA Sound Production|
Язык : Ukrainian
Default : Нет
Forced : Нет

Аудио #3
Идентификатор : 4
Формат : DTS
Формат/Информация : Digital Theater Systems
Режим : 16
Параметр Endianness формата : Big
Идентификатор кодека : A_DTS
Продолжительность : 1 ч. 17 м.
Вид битрейта : Постоянный
Битрейт : 1509 Кбит/сек
Каналы : 6 каналов
Расположение каналов : Front: L C R, Side: L R, LFE
Частота : 48,0 КГц
Частота кадров : 93,750 кадра/сек (512 spf)
Битовая глубина : 16 бит
Метод сжатия : С потерями
Размер потока : 839 Мбайт (13%)
Язык : French
Default : Нет
Forced : Нет

Текст #1
Идентификатор : 5
Формат : UTF-8
Идентификатор кодека : S_TEXT/UTF8
Идентификатор кодека/Информация : UTF-8 Plain Text
Язык : Russian
Default : Нет
Forced : Нет

Текст #2
Идентификатор : 6
Формат : UTF-8
Идентификатор кодека : S_TEXT/UTF8
Идентификатор кодека/Информация : UTF-8 Plain Text
Язык : Ukrainian
Default : Нет
Forced : Нет

Текст #3
Идентификатор : 7
Формат : UTF-8
Идентификатор кодека : S_TEXT/UTF8
Идентификатор кодека/Информация : UTF-8 Plain Text
Язык : French
Default : Нет
Forced : Нет

Текст #4
Идентификатор : 8
Формат : UTF-8
Идентификатор кодека : S_TEXT/UTF8
Идентификатор кодека/Информация : UTF-8 Plain Text
Язык : English
Default : Нет
Forced : Нет

Меню
00:00:00.000 : :00:00:00.000
00:02:09.588 : :00:02:09.588
00:09:50.465 : :00:09:50.465
00:15:41.315 : :00:15:41.315
00:20:43.909 : :00:20:43.909
00:25:49.298 : :00:25:49.298
00:31:28.136 : :00:31:28.136
00:35:28.501 : :00:35:28.501
00:41:39.789 : :00:41:39.789
00:46:06.263 : :00:46:06.263
00:51:55.612 : :00:51:55.612
00:57:51.551 : :00:57:51.551
01:01:29.102 : :01:01:29.102
01:04:45.340 : :01:04:45.340
01:10:43.823 : :01:10:43.823
01:14:33.219 : :01:14:33.219

pb.wtf



Скачать Анонимные романтики через торрент http://s57.radikal.ru/i157/1112/c9/a3ca7617648d.jpg Скачать фильм Анонимные романтики через торрент бесплантно в хорошем качестве Описание: Скромный кондитер Жан-Рене и его новая обаятельная сотрудница Анжелика - идеальная пара: они оба без ума от шоколада, романтичной ... 10 10 4
Торрент: Зарегистрирован [2019-11-03 17:53] · скачан: 29 раз
Статус: √ проверено
Размер: 6.46 GB
Как cкачать? Как скачать Анонимные романтики через торрент | qTorrent

% Раздел Тема Автор DL S | L
Фильмы [HD 720p, 1080p] (Хороший звук DUB, MVO) [ 12.45 GB ] Анонимные романтики / Les émotifs anonymes [2010 Мело BDRip 1080p] MVO bober100 Скачать
1 | 0

28-11-2019 20:33  

Отключить всю рекламу на сайте

    Дорогой пользователь! Огромная просьба, поблагодарите релизера, оцените раздачу и оставьте свои комментарий, если Вы скачали Анонимные романтики через торрент бесплатно! Внесите свою лепту в развитие PiratBit!
    Комментировать посты могут только пользователи прошедшие не сложную регистрацию
    Показать сообщения:    

    Анонимные романтики через торрент
    Скачать бесплатно Анонимные романтики
    Анонимные романтики скачать торрент
    Анонимные романтики смотреть онлайн
    Cкачать фильм Анонимные романтики бесплатно
    Анонимные романтики скачать торрент в хорошем качестве
    Анонимные романтики смотреть онлайн бесплатно в хорошем качестве


    Вы не можете начинать темы
    Вы не можете отвечать на сообщения
    Вы не можете редактировать свои сообщения
    Вы не можете удалять свои сообщения
    Вы не можете голосовать в опросах
    Вы не можете прикреплять файлы к сообщениям
    Вы можете скачивать файлы