новый адрес
Ссылка на приватное зеркало всего за 1$. Внимание количество ограничено!!!

iTunes

1+1

iTunes

мы

WEB-DL

1

iTunes

Чернобыль

iTunes

Ральф против интернета

Лицензия

ПШазам

Лицензия

Оно 2

Лицензия

30
pack

Вам бонус

ВАЖНО

!!Акция!!

Alien_RageХит недели

RePack

Resident Evil 21

ИГРА 18+

pack

RePack

jed

!!Акция!!

Alien_Rage

RePack

fifa19

RePack

Assassins Creed: Odyssey

RePack

NEED FOR SPEED™ PAYBACK

3 сезон

9 сезон

Бесстыжие 9 сезон

Все сериалы

все сериалы на PB.wtf

RePack

FAR CRY 5
Ребята, катастрофически не хватает 1900р. для оплаты серверов за Октябрь (всвязи с блокировками трафик упал в 3 раза), 1-2р., выручайте.
  

Побег из сумасшедшего дома: История Нелли Блай / Escaping the Madhouse: The Nellie Bly Story (Карен Монкрифф) [2019, Триллер, WEB-DLRip-AVC] MVO [HDRezka Studio] - OllanDGroup pb.wtf

Побег из сумасшедшего дома: История Нелли Блай через торрент pb.wtf

Раздают: 16 [ 268 KB/s ]
Размер: 1.64 GB | Добавлен: 1 мес. 8 д. назад | Торрент скачан:385 раз
Скачать  

03-11-2019 18:37 Побег из сумасшедшего дома: История Нелли Блай Скачать торрент  

Побег из сумасшедшего дома: История Нелли Блай / Escaping the Madhouse: The Nellie Bly Story Год выпуска: 2019
Страна: США
Жанр: Триллер
Продолжительность: 01:28:21

Перевод: Профессиональный (многоголосый) | HDRezka Studio
Субтитры: Русские (форсированные), английские (full, SDH)

Режиссер: Карен Монкрифф


rating

В ролях: Кристина Риччи, Джудит Лайт, Джош Боуман, Аня Савчич, Никки Дювал, Лорен Кокрейн, Кэтлин Галлахер, Анджела Нарт, Джохис Намвира, Джим Кирби, Мюриэль Хог, Джойс Кренц, Роберт Боргес, Шон Скин, Карен Туса

Описание: События разворачиваются в 1887 году в Нью-Йорке. Молодая журналистка Нелли Блай оказывается в психиатрической лечебнице, которая расположена на острове возле Манхэттена. При этом девушка находится в здравом уме, так как симулировала шизофрению, чтобы узнать какие ужасы творятся за стенами больницы. Компанию ей составляют бедные проститутки, пожилые женщины с деменцией и иммигрантки, которые оказались здесь потому, что не могут говорить по-английски — все они считаются сумасшедшими. Вот только Нелли, столкнувшаяся со зверствами и жестокостью персонала, совершенно не предполагала, что выбраться из этого места будет намного сложнее, чем попасть...

Качество: WEB-DLRip-AVC
Формат: MKV

Видео: 1024x576 (16:9), 23.976 fps, x264 ~2 234 kbps avg, 0.158 bit/pixel
Звук #1: 48 kHz, AC3, 2 (L,R) ch, ~256 kbps avg | RUS (HDRezka Studio)
Звук #2: 48 kHz, E-AC3, 2 (L,R) ch, ~224 kbps | ENG (Original)
Escaping.The.Madhouse.The.Nellie.Bly.Story.2019.AMZN.WEB-DLRip(AVC).OllanDGroup.mkv
Format : Matroska
Format version : Version 4
File size : 1.64 GiB
Duration : 1 h 28 min
Overall bit rate : 2 651 kb/s
Movie name : Escaping.The.Madhouse.The.Nellie.Bly.Story.2019
Encoded date : UTC 2019-11-03 13:11:52
Writing application : mkvmerge v29.0.0 ('Like It Or Not') 64-bit
Writing library : libebml v1.3.6 + libmatroska v1.4.9

Video
ID : 1
Format : AVC
Format/Info : Advanced Video Codec
Format profile : High@L4.1
Format settings : CABAC / 10 Ref Frames
Format settings, CABAC : Yes
Format settings, ReFrames : 10 frames
Codec ID : V_MPEG4/ISO/AVC
Duration : 1 h 28 min
Bit rate : 2 234 kb/s
Width : 1 024 pixels
Height : 576 pixels
Display aspect ratio : 16:9
Frame rate mode : Constant
Frame rate : 23.976 (24000/1001) FPS
Color space : YUV
Chroma subsampling : 4:2:0
Bit depth : 8 bits
Scan type : Progressive
Bits/(Pixel*Frame) : 0.158
Stream size : 1.38 GiB (84%)
Writing library : x264 core 146 r2538 121396c
Encoding settings : cabac=1 / ref=10 / deblock=1:-3:-3 / analyse=0x3:0x113 / me=umh / subme=11 / psy=1 / psy_rd=0.97:0.05 / mixed_ref=1 / me_range=48 / chroma_me=1 / trellis=2 / 8x8dct=1 / cqm=0 / deadzone=21,11 / fast_pskip=1 / chroma_qp_offset=-6 / threads=6 / lookahead_threads=1 / sliced_threads=0 / nr=0 / decimate=1 / interlaced=0 / bluray_compat=0 / constrained_intra=0 / bframes=11 / b_pyramid=2 / b_adapt=2 / b_bias=0 / direct=3 / weightb=1 / open_gop=0 / weightp=2 / keyint=240 / keyint_min=23 / scenecut=40 / intra_refresh=0 / rc_lookahead=40 / rc=2pass / mbtree=0 / bitrate=2234 / ratetol=1.0 / qcomp=0.60 / qpmin=0 / qpmax=69 / qpstep=4 / cplxblur=20.0 / qblur=0.5 / vbv_maxrate=50000 / vbv_bufsize=62500 / nal_hrd=none / filler=0 / ip_ratio=1.40 / pb_ratio=1.30 / aq=1:1.00
Language : English
Default : Yes
Forced : No

Audio #1
ID : 2
Format : AC-3
Format/Info : Audio Coding 3
Commercial name : Dolby Digital
Codec ID : A_AC3
Duration : 1 h 28 min
Bit rate mode : Constant
Bit rate : 192 kb/s
Channel(s) : 2 channels
Channel layout : L R
Sampling rate : 48.0 kHz
Frame rate : 31.250 FPS (1536 SPF)
Bit depth : 16 bits
Compression mode : Lossy
Stream size : 121 MiB (7%)
Title : MVO [HDRezka Studio]
Language : Russian
Service kind : Complete Main
Default : Yes
Forced : No

Audio #2
ID : 3
Format : E-AC-3
Format/Info : Enhanced AC-3
Commercial name : Dolby Digital Plus
Codec ID : A_EAC3
Duration : 1 h 28 min
Bit rate mode : Constant
Bit rate : 224 kb/s
Channel(s) : 2 channels
Channel layout : L R
Sampling rate : 48.0 kHz
Frame rate : 31.250 FPS (1536 SPF)
Compression mode : Lossy
Stream size : 142 MiB (8%)
Title : [Original]
Language : English
Service kind : Complete Main
Default : No
Forced : No

Text #1
ID : 4
Format : UTF-8
Codec ID : S_TEXT/UTF8
Codec ID/Info : UTF-8 Plain Text
Duration : 1 h 27 min
Bit rate : 3 b/s
Count of elements : 17
Stream size : 2.03 KiB (0%)
Title : Forced
Language : Russian
Default : Yes
Forced : No

Text #2
ID : 5
Format : UTF-8
Codec ID : S_TEXT/UTF8
Codec ID/Info : UTF-8 Plain Text
Duration : 1 h 25 min
Bit rate : 69 b/s
Count of elements : 1423
Stream size : 43.2 KiB (0%)
Title : Full
Language : English
Default : No
Forced : No

Text #3
ID : 6
Format : UTF-8
Codec ID : S_TEXT/UTF8
Codec ID/Info : UTF-8 Plain Text
Duration : 1 h 27 min
Bit rate : 69 b/s
Count of elements : 1535
Stream size : 44.6 KiB (0%)
Title : SDH
Language : English
Default : No
Forced : No
Релиз от:
& pb.wtf



Скачать Побег из сумасшедшего дома: История Нелли Блай через торрент http://c.radikal.ru/c19/1909/e8/89e082f5ac1e.jpg Скачать фильм Побег из сумасшедшего дома: История Нелли Блай через торрент бесплантно в хорошем качестве Описание: События разворачиваются в 1887 году в Нью-Йорке. Молодая журналистка Нелли Блай оказывается в психиатрической лечебнице, которая ... 10 10 8
Торрент: Зарегистрирован [2019-11-03 18:37] · скачан: 385 раз
Статус: T временная
Размер: 1.64 GB
Как cкачать? Как скачать Побег из сумасшедшего дома: История Нелли Блай через торрент | qTorrent

28-11-2019 20:33  

Отключить всю рекламу на сайте

03-11-2019 20:25 Побег из сумасшедшего дома: История Нелли Блай Скачать торрент  

ни чего так фильм.смотрительныйpb.wtf



    Дорогой пользователь! Огромная просьба, поблагодарите релизера, оцените раздачу и оставьте свои комментарий, если Вы скачали Побег из сумасшедшего дома: История Нелли Блай через торрент бесплатно! Внесите свою лепту в развитие PiratBit!
    Комментировать посты могут только пользователи прошедшие не сложную регистрацию
    Показать сообщения:    

    Побег из сумасшедшего дома: История Нелли Блай через торрент
    Скачать бесплатно Побег из сумасшедшего дома: История Нелли Блай
    Побег из сумасшедшего дома: История Нелли Блай скачать торрент
    Побег из сумасшедшего дома: История Нелли Блай смотреть онлайн
    Cкачать фильм Побег из сумасшедшего дома: История Нелли Блай бесплатно
    Побег из сумасшедшего дома: История Нелли Блай скачать торрент в хорошем качестве
    Побег из сумасшедшего дома: История Нелли Блай смотреть онлайн бесплатно в хорошем качестве


    Вы не можете начинать темы
    Вы не можете отвечать на сообщения
    Вы не можете редактировать свои сообщения
    Вы не можете удалять свои сообщения
    Вы не можете голосовать в опросах
    Вы не можете прикреплять файлы к сообщениям
    Вы можете скачивать файлы