2 сезон

iTunes

MVO

1

2 сезон

iTunes

iTunes

1 сезон

RePack

30

Новинка

ВАЖНО

ИГРА 18+

pack

RePack

MK11
pack

Легкие деньги

RePack

jed

RePack

fifa19

RePack

RDR2

RePack

NEED FOR SPEED™ PAYBACK

4 сезон

9 сезон

Бесстыжие 9 сезон

Все сериалы

все сериалы на PB.wtf

RePack

FAR CRY 5

Anonymous, доброе утро, мы не успеваем собрать деньги на оплату серверов за декабрь и январь, помогите нам пожалуйста в это трудное время. В качестве благодарности мы отключим Вам всю рекламу на сайте (укажите свой ник в строку Ваше имя)!

×
  
Magnet ссылка

Касл-Рок / Castle Rock / Сезон: 2 / Серии: 1-10 из 10 (Майкл Аппендаль, Грег Яйтанс, Ана Лили Амирпур) [2019, ужасы, триллер, детектив, UHD WEB-DL 2160p] 4xMVO [LostFilm, AlexFilm, TVShows, Jaskier] pb.wtf

Касл-Рок через торрент pb.wtf

Раздают: 1 [ 0 KB/s ]
Размер: 54.88 GB | Добавлен: 1 год назад | Торрент скачан:18 раз
Скачать  

03-11-2019 20:12 Касл-Рок Скачать торрент  

Касл-Рок / Castle Rock Год выпуска: 2019
Страна: США, Hulu, Bad Robot, Old Curiosity Shop, Warner Bros. Television
Жанр: ужасы, триллер, детектив, драма, фэнтези
Продолжительность: ~ 00:50:00

Перевод: профессиональный (многоголосый закадровый) | LostFilm
Перевод: профессиональный (многоголосый закадровый) | AlexFilm
Перевод: профессиональный (многоголосый закадровый) | TVShows
Перевод: профессиональный (многоголосый закадровый) | Jaskier
Субтитры: Английские (Full)

Режиссёр: Майкл Аппендаль, Грег Яйтанс, Ана Лили Амирпур

В ролях: Адам Ротенберг, Калил Харрис, Андре Холланд, Мелани Лински, Скотт Гленн, Ноэль Фишер, Джейн Леви, Билл Скарсгард, Сисси Спейсек

Описание: В несчастливый городок въезжает одна из самых жутких героинь одного из самых страшных романов Кинга — психопатка Энни Уилкс. Ее появление спровоцирует войну и без того враждующих кланов Касл-Рока. Но война - это не самое страшное в сериале. Важнее кто ее ведет, и какие силы она пробуждает.



Качество: WEB-DL 2160p
Контейнер: MKV

Видео: HEVC, 3840x2160 (16:9), ~ 14,5 Mbps, 23.976 fps
Аудио 1: E-AC3, 48 kHz, 6 ch, 256 kbps - Rus (LostFilm)
Аудио 2: AC3, 48 kHz, 6 ch, 384 kbps - Rus (AlexFilm)
Аудио 3: AC3, 48 kHz, 6 ch, 384 kbps - Rus (TVShows)
Аудио 4: AC3, 48 kHz, 6 ch, 384 kbps - Rus (Jaskier)
Аудио 5: E-AC3, 48 kHz, 6 ch, 256 kbps - Eng


Реклама: Отсутствует
Спасибо:
Внимание! Раздача ведётся путём добавления новых серий; при каждом добавлении создаётся новый торрент.
Чтобы начать докачку новой серии, пользователям необходимо сделать следующее:
1. Остановить скачивание.
2. Удалить старый торрент у себя из клиента (старые серии удалять не надо).
3. Скачать новый торрент и запустить его у себя в клиенте вместо старого, при этом указать клиенту путь в старую папку куда и должно происходить скачивание новых серий.
Ваш клиент при этом должен произвести хеширование (проверку) старой папки (если не производит сам - помогите ему сделать это), и будет докачивать только те серии которых у вас ещё нет. Старые серии при этом не удаляются, а продолжают раздаваться!
Eсли вы уже удалили старые серии, то предотвратить повторную закачку старых серий можно, отжав галочку в соответствующих местах при запуске нового торрента.

Работа со звуком: itunestv@eniahd & Atla22
2-01. Пусть бежит река / Let The River Run (23.10.2019)
2-02. Новый Иерусалим / New Jerusalem (23.10.2019)
2-03. Эти прочные узы / Ties That Bind (23.10.2019)
2-04. Вернуть надежду / Restore Hope (30.10.2019)

Анонс:
2-05. The laughing Place (06.11.2019)
Общее
Уникальный идентификатор                 : 173745680022827994325902220125845651860 (0x82B63366BC9D342990416DD194710194)
Полное имя                               : Castle Rock. 2 сезон. 2019. MVO. EniaHD (HEVC, WEB-DL 2160p)\Castle.Rock.s02e01. Пусть бежит река.mkv
Формат                                   : Matroska
Версия формата                           : Version 2
Размер файла                             : 6,95 Гбайт
Продолжительность                        : 1 ч. 0 м.
Общий поток                              : 16,5 Мбит/сек
Дата кодирования                         : UTC 2019-11-03 14:52:11
Программа кодирования                    : mkvmerge v6.9.1 ('Blue Panther') 32bit built on Apr 18 2014 18:15:44
Библиотека кодирования                   : libebml v1.3.0 + libmatroska v1.4.1

Видео
Идентификатор                            : 1
Формат                                   : HEVC
Формат/Информация                        : High Efficiency Video Coding
Профиль формата                          : Main 10@L5.1@Main
Идентификатор кодека                     : V_MPEGH/ISO/HEVC
Продолжительность                        : 1 ч. 0 м.
Битрейт                                  : 14,5 Мбит/сек
Ширина                                   : 3840 пикселей
Высота                                   : 2160 пикселей
Соотношение сторон                       : 16:9
Режим частоты кадров                     : Постоянный
Частота кадров                           : 23,976 (24000/1001) кадра/сек
Цветовое пространство                    : YUV
Субдискретизация насыщенности            : 4:2:0
Битовая глубина                          : 10 бит
Бит/(Пиксели*Кадры)                      : 0.073
Размер потока                            : 6,11 Гбайт (88%)
Язык                                     : English
Default                                  : Да
Forced                                   : Нет

Аудио #1
Идентификатор                            : 2
Формат                                   : E-AC-3
Формат/Информация                        : Enhanced AC-3
Коммерческое название                    : Dolby Digital Plus
Идентификатор кодека                     : A_EAC3
Продолжительность                        : 1 ч. 0 м.
Вид битрейта                             : Постоянный
Битрейт                                  : 256 Кбит/сек
Каналы                                   : 6 каналов
Channel layout                           : L R C LFE Ls Rs
Частота                                  : 48,0 КГц
Частота кадров                           : 31,250 кадров/сек (1536 SPF)
Метод сжатия                             : С потерями
Размер потока                            : 110 Мбайт (2%)
Заголовок                                : LostFilm
Язык                                     : Russian
ServiceKind/String                       : Complete Main
Default                                  : Да
Forced                                   : Нет

Аудио #2
Идентификатор                            : 3
Формат                                   : AC-3
Формат/Информация                        : Audio Coding 3
Коммерческое название                    : Dolby Digital
Идентификатор кодека                     : A_AC3
Продолжительность                        : 1 ч. 0 м.
Вид битрейта                             : Постоянный
Битрейт                                  : 384 Кбит/сек
Каналы                                   : 6 каналов
Channel layout                           : L R C LFE Ls Rs
Частота                                  : 48,0 КГц
Частота кадров                           : 31,250 кадров/сек (1536 SPF)
Битовая глубина                          : 16 бит
Метод сжатия                             : С потерями
Размер потока                            : 166 Мбайт (2%)
Заголовок                                : AlexFilm
Язык                                     : Russian
ServiceKind/String                       : Complete Main
Default                                  : Нет
Forced                                   : Нет

Аудио #3
Идентификатор                            : 4
Формат                                   : AC-3
Формат/Информация                        : Audio Coding 3
Коммерческое название                    : Dolby Digital
Идентификатор кодека                     : A_AC3
Продолжительность                        : 1 ч. 0 м.
Вид битрейта                             : Постоянный
Битрейт                                  : 384 Кбит/сек
Каналы                                   : 6 каналов
Channel layout                           : L R C LFE Ls Rs
Частота                                  : 48,0 КГц
Частота кадров                           : 31,250 кадров/сек (1536 SPF)
Битовая глубина                          : 16 бит
Метод сжатия                             : С потерями
Размер потока                            : 166 Мбайт (2%)
Заголовок                                : TVShows
Язык                                     : Russian
ServiceKind/String                       : Complete Main
Default                                  : Нет
Forced                                   : Нет

Аудио #4
Идентификатор                            : 5
Формат                                   : AC-3
Формат/Информация                        : Audio Coding 3
Коммерческое название                    : Dolby Digital
Идентификатор кодека                     : A_AC3
Продолжительность                        : 1 ч. 0 м.
Вид битрейта                             : Постоянный
Битрейт                                  : 384 Кбит/сек
Каналы                                   : 6 каналов
Channel layout                           : L R C LFE Ls Rs
Частота                                  : 48,0 КГц
Частота кадров                           : 31,250 кадров/сек (1536 SPF)
Битовая глубина                          : 16 бит
Метод сжатия                             : С потерями
Размер потока                            : 166 Мбайт (2%)
Заголовок                                : Jaskier
Язык                                     : Russian
ServiceKind/String                       : Complete Main
Default                                  : Нет
Forced                                   : Нет

Аудио #5
Идентификатор                            : 6
Формат                                   : E-AC-3
Формат/Информация                        : Enhanced AC-3
Коммерческое название                    : Dolby Digital Plus
Идентификатор кодека                     : A_EAC3
Продолжительность                        : 1 ч. 0 м.
Вид битрейта                             : Постоянный
Битрейт                                  : 256 Кбит/сек
Каналы                                   : 6 каналов
Channel layout                           : L R C LFE Ls Rs
Частота                                  : 48,0 КГц
Частота кадров                           : 31,250 кадров/сек (1536 SPF)
Метод сжатия                             : С потерями
Размер потока                            : 110 Мбайт (2%)
Язык                                     : English
ServiceKind/String                       : Complete Main
Default                                  : Нет
Forced                                   : Нет

Текст
Идентификатор                            : 7
Формат                                   : UTF-8
Идентификатор кодека                     : S_TEXT/UTF8
Идентификатор кодека/Информация          : UTF-8 Plain Text
Заголовок                                : English
Язык                                     : English
Default                                  : Нет
Forced                                   : Нет
pb.wtf



Скачать Касл-Рок через торрент https://funkyimg.com/i/2Yfid.png Скачать фильм Касл-Рок через торрент бесплантно в хорошем качестве Описание: В несчастливый городок въезжает одна из самых жутких героинь одного из самых страшных романов Кинга — психопатка Энни Уилкс. Ее ... 10 10 4
Торрент: Зарегистрирован [2019-12-19 15:18] · скачан: 18 раз
Статус: √ проверено
Размер: 54.88 GB
Как cкачать? Как скачать Касл-Рок через торрент | UTorrent

% Раздел Тема Автор DL S | L
Зарубежные сериалы [ 7.15 GB ] Касл-Рок / Castle Rock / Сезон: 2 / Серии: 1-10 из 10 [2019 WEB-DL 720p] MVO [TVShows] bober100 Скачать
1 | 0
Зарубежные сериалы [ 6.76 GB ] Касл-Рок / Castle Rock / Сезон: 2 / Серии: 1-10 из 10 [2019 WEB-DLRip] MVO [LostFilm] bober100 Скачать
1 | 0
Зарубежные сериалы [ 6.5 GB ] Касл-Рок / Castle Rock / Сезон: 2 / Серии: 1-10 из 10 [2019 WEB-DL 720p] MVO [Novamedia] bober100 Скачать
1 | 0
Зарубежные сериалы [ 10.83 GB ] Касл-Рок / Castle Rock / Сезон: 2 / Серии: 1-10 из 10 [2019 WEBRip 720p] 3xMVO [AlexFilm TVShows Jaskier] bober100 Скачать
1 | 0
Зарубежные сериалы [ 13.11 GB ] Касл-Рок / Castle Rock / Сезон: 2 / Серии: 1-10 из 10 [2019 WEBRip 1080p] MVO [Novamedia] bober100 Скачать
1 | 0
Зарубежные сериалы [ 13.76 GB ] Касл-Рок / Castle Rock / Сезон: 2 / Серии: 1-10 из 10 [2019 WEB-DL 1080p] MVO [TVShows] bober100 Скачать
2 | 0
Зарубежные сериалы [ 7.59 GB ] Касл-Рок / Castle Rock / Сезон: 2 / Серии: 1-10 из 10 [2019 WEB-DL 720p] MVO [Jaskier] bober100 Скачать
1 | 0

28-11-2019 20:33  

Отключить всю рекламу на сайте

    Дорогой пользователь! Огромная просьба, поблагодарите релизера, оцените раздачу и оставьте свои комментарий, если Вы скачали Касл-Рок через торрент бесплатно! Внесите свою лепту в развитие PiratBit!
    Комментировать посты могут только пользователи прошедшие не сложную регистрацию
    Показать сообщения:    

    Касл-Рок через торрент
    Скачать бесплатно Касл-Рок
    Касл-Рок скачать торрент
    Касл-Рок смотреть онлайн
    Cкачать фильм Касл-Рок бесплатно
    Касл-Рок скачать торрент в хорошем качестве
    Касл-Рок смотреть онлайн бесплатно в хорошем качестве


    Вы не можете начинать темы
    Вы не можете отвечать на сообщения
    Вы не можете редактировать свои сообщения
    Вы не можете удалять свои сообщения
    Вы не можете голосовать в опросах
    Вы не можете прикреплять файлы к сообщениям
    Вы можете скачивать файлы