Ссылка на приватное зеркало нашего сайта всего за 1$. Внимание количество ограничено!!!

2 сезон

iTunes

1 сезон

1

iTunes

iTunes

iTunes

1 сезон

RePack

30

ИГРА 18+

pack

ВАЖНО

!!Акция!!

Alien_RageХит недели

RePack

MK11
pack

Забери бонус

RePack

jed

!!Акция!!

Alien_Rage

RePack

fifa19

RePack

Assassins Creed: Odyssey

RePack

NEED FOR SPEED™ PAYBACK

4 сезон

9 сезон

Бесстыжие 9 сезон

Все сериалы

все сериалы на PB.wtf

RePack

FAR CRY 5
  

Анонимные романтики / Les émotifs anonymes (Жан-Пьерр Амери) [2010, Мелодрама, комедия, BDRip 1080p] MVO pb.wtf

Анонимные романтики через торрент pb.wtf

Размер: 12.45 GB | Добавлен: 11 мес. назад | Торрент скачан:27 раз
Скачать  

04-11-2019 06:33 Анонимные романтики Скачать торрент  

Анонимные романтики / Les émotifs anonymes
Год выпуска: 2010
Страна: Франция, Бельгия
Жанр: Мелодрама, комедия
Продолжительность: 01:17:40
Перевод: Профессиональный (многоголосый) | с ДВД лицензии R5
Субтитры: Russian

Режиссер: Жан-Пьерр Амери

rating

В ролях: Бенуа Пульворд, Изабелль Карре, Лорелла Кравотта, Lise Lamйtrie, Сванн Арло, Пьере Нинье, Стефан Войтович, Жак Буде, Алис Поль, Селин Дюамель

Описание: Скромный кондитер Жан-Рене и его новая обаятельная сотрудница Анжелика - идеальная пара: они оба без ума от шоколада, романтичной музыки и парижских вечеров под развесистыми каштанами. Но оба - ужасно стеснительны, и ни один из них никак не решится сделать ответственный шаг навстречу зову сердца. Смогут ли предназначенные друг для друга возлюбленные преодолеть природную робость или так и суждено им в одиночестве посещать собрания Общества Анонимных Романтиков?

Качество: BDRip 1080p
Формат: MKV

Видео: MPEG-4 AVC, 19.5 Мбит/с, 1920x816, 23.976 кадр/с
Аудио#1: Русский, DTS, 6 ch, 1509 Кбит/с
Аудио#2: Французский, DTS, 6 ch, 1509 Кбит/с
скриншот  скриншот  скриншот  

Общее
Уникальный идентификатор : 230712634940674262372002284668180718140 (0xAD91A320B93DFDFAAC532F0E1A67623C)
Полное имя : D:\Anonimnye.romantiki.2010.x264.BDRip(1080p)-HDLine.mkv
Формат : Matroska
Версия формата : Version 2
Размер файла : 12,5 Гбайт
Продолжительность : 1 ч. 17 м.
Общий поток : 22,9 Мбит/сек
Название фильма : --SCHUMAHER--
Дата кодирования : UTC 2011-12-27 20:57:38
Программа кодирования : mkvmerge v5.2.0 ('I can't explain') built on Dec 18 2011 18:12:03
Библиотека кодирования : libebml v1.2.3 + libmatroska v1.3.0

Видео
Идентификатор : 1
Формат : AVC
Формат/Информация : Advanced Video Codec
Профиль формата : High@L4.1
Параметр CABAC формата : Да
Параметр RefFrames формата : 4 кадра
Идентификатор кодека : V_MPEG4/ISO/AVC
Продолжительность : 1 ч. 17 м.
Битрейт : 19,5 Мбит/сек
Ширина : 1920 пикселей
Высота : 816 пикселей
Соотношение сторон : 2,35:1
Режим частоты кадров : Постоянный
Частота кадров : 23,976 (24000/1001) кадра/сек
Цветовое пространство : YUV
Субдискретизация насыщенности : 4:2:0
Битовая глубина : 8 бит
Тип развёртки : Прогрессивная
Бит/(Пиксели*Кадры) : 0.518
Размер потока : 10,6 Гбайт (85%)
Библиотека кодирования : x264 core 115 r1995kMod c1e60b9
Настройки программы : cabac=1 / ref=4 / deblock=1:-3:-3 / analyse=0x3:0x113 / me=umh / subme=10 / psy=1 / fade_compensate=0.00 / psy_rd=1.00:0.40 / mixed_ref=1 / me_range=64 / chroma_me=1 / trellis=2 / 8x8dct=1 / cqm=0 / deadzone=6,6 / fast_pskip=0 / chroma_qp_offset=-4 / threads=12 / sliced_threads=0 / nr=0 / decimate=0 / interlaced=0 / bluray_compat=0 / constrained_intra=0 / bframes=5 / b_pyramid=2 / b_adapt=2 / b_bias=0 / direct=1 / weightb=1 / open_gop=0 / weightp=2 / keyint=250 / keyint_min=23 / scenecut=40 / intra_refresh=0 / rc_lookahead=150 / rc=crf / mbtree=1 / crf=18.5000 / qcomp=0.75 / qpmin=0 / qpmax=69 / qpstep=4 / vbv_maxrate=50000 / vbv_bufsize=50000 / crf_max=0.0 / nal_hrd=none / ip_ratio=1.40 / aq=2:0.80
Язык : French
Default : Да
Forced : Да

Аудио #1
Идентификатор : 2
Формат : DTS
Формат/Информация : Digital Theater Systems
Режим : 16
Параметр Endianness формата : Big
Идентификатор кодека : A_DTS
Продолжительность : 1 ч. 17 м.
Вид битрейта : Постоянный
Битрейт : 1510 Кбит/сек
Каналы : 6 каналов
Расположение каналов : Front: L C R, Side: L R, LFE
Частота : 48,0 КГц
Частота кадров : 93,750 кадра/сек (512 spf)
Битовая глубина : 16 бит
Метод сжатия : С потерями
Размер потока : 839 Мбайт (7%)
Язык : Russian
Default : Да
Forced : Да

Аудио #2
Идентификатор : 3
Формат : DTS
Формат/Информация : Digital Theater Systems
Режим : 16
Параметр Endianness формата : Big
Идентификатор кодека : A_DTS
Продолжительность : 1 ч. 17 м.
Вид битрейта : Постоянный
Битрейт : 1509 Кбит/сек
Каналы : 6 каналов
Расположение каналов : Front: L C R, Side: L R, LFE
Частота : 48,0 КГц
Частота кадров : 93,750 кадра/сек (512 spf)
Битовая глубина : 16 бит
Метод сжатия : С потерями
Размер потока : 838 Мбайт (7%)
Язык : French
Default : Нет
Forced : Нет

Текст
Идентификатор : 4
Формат : UTF-8
Идентификатор кодека : S_TEXT/UTF8
Идентификатор кодека/Информация : UTF-8 Plain Text
Язык : Russian
Default : Нет
Forced : Нет

Меню
00:00:00.000 : en:00:00:00.000
00:02:09.587 : en:00:02:09.587
00:09:50.464 : en:00:09:50.464
00:15:41.315 : en:00:15:41.315
00:20:43.909 : en:00:20:43.909
00:25:49.297 : en:00:25:49.297
00:31:28.136 : en:00:31:28.136
00:35:28.501 : en:00:35:28.501
00:41:39.788 : en:00:41:39.788
00:46:06.263 : en:00:46:06.263
00:51:55.612 : en:00:51:55.612
00:57:51.551 : en:00:57:51.551
01:01:29.102 : en:01:01:29.102
01:04:45.339 : en:01:04:45.339
01:10:43.822 : en:01:10:43.822
01:14:33.218 : en:01:14:33.218

pb.wtf



Скачать Анонимные романтики через торрент http://s57.radikal.ru/i157/1112/c9/a3ca7617648d.jpg Скачать фильм Анонимные романтики через торрент бесплантно в хорошем качестве Описание: Скромный кондитер Жан-Рене и его новая обаятельная сотрудница Анжелика - идеальная пара: они оба без ума от шоколада, романтичной ... 10 10 2
Торрент: Зарегистрирован [2019-11-04 06:33] · скачан: 27 раз
Статус: √ проверено
Размер: 12.45 GB
Как cкачать? Как скачать Анонимные романтики через торрент | qTorrent

% Раздел Тема Автор DL S | L
Фильмы [HD 720p, 1080p] (Хороший звук DUB, MVO) [ 6.46 GB ] Анонимные романтики / Les émotifs anonymes [2010 Мело BDRip 720p] MVO bober100 Скачать
1 | 0

28-11-2019 20:33  

Отключить всю рекламу на сайте

    Дорогой пользователь! Огромная просьба, поблагодарите релизера, оцените раздачу и оставьте свои комментарий, если Вы скачали Анонимные романтики через торрент бесплатно! Внесите свою лепту в развитие PiratBit!
    Комментировать посты могут только пользователи прошедшие не сложную регистрацию
    Показать сообщения:    

    Анонимные романтики через торрент
    Скачать бесплатно Анонимные романтики
    Анонимные романтики скачать торрент
    Анонимные романтики смотреть онлайн
    Cкачать фильм Анонимные романтики бесплатно
    Анонимные романтики скачать торрент в хорошем качестве
    Анонимные романтики смотреть онлайн бесплатно в хорошем качестве


    Вы не можете начинать темы
    Вы не можете отвечать на сообщения
    Вы не можете редактировать свои сообщения
    Вы не можете удалять свои сообщения
    Вы не можете голосовать в опросах
    Вы не можете прикреплять файлы к сообщениям
    Вы можете скачивать файлы