Ссылка на приватное зеркало всего за 1$. Внимание количество ограничено!!!

iTunes

1+1

iTunes

мы

WEB-DL

1

iTunes

Чернобыль

iTunes

Ральф против интернета

Лицензия

ПШазам

Лицензия

Оно 2

Лицензия

30
pack

Вам бонус

ВАЖНО

!!Акция!!

Alien_RageХит недели

RePack

Resident Evil 21

ИГРА 18+

pack

RePack

jed

!!Акция!!

Alien_Rage

RePack

fifa19

RePack

Assassins Creed: Odyssey

RePack

NEED FOR SPEED™ PAYBACK

3 сезон

9 сезон

Бесстыжие 9 сезон

Все сериалы

все сериалы на PB.wtf

RePack

FAR CRY 5
Ребята, катастрофически не хватает 1900р. для оплаты серверов за Октябрь (всвязи с блокировками трафик упал в 3 раза), 1-2р., выручайте.
  

Синяя бездна 2 / 47 Meters Down: Uncaged (Йоханнес Робертс) [2019, ужасы, триллер, драма, приключения, BDRip-AVC] DUB [iTunes] - OlLanDGroup pb.wtf

Синяя бездна 2 через торрент pb.wtf

Раздают: 3 [ 0 KB/s ]
Размер: 741 MB | Добавлен: 1 мес. 9 д. назад | Торрент скачан:51 раз
Скачать  

04-11-2019 06:44 Синяя бездна 2 Скачать торрент  

Синяя бездна 2 / 47 Meters Down: Uncaged Год выпуска: 2019
Страна: Великобритания, США
Студия: thefyzz
Жанр: ужасы, триллер, драма, приключения
Продолжительность: 01:30:04

Перевод: Дублированный | iTunes
Субтитры: Русские (Full), Английские (Full)

Режиссер: Йоханнес Робертс


rating

В ролях: Софи Нелисс, Корина Фокс, Бриэнн Тджу, Систин Роуз Сталлоне, Брэк Бэссинджер, Ниа Лонг, Джон Корбетт, Дави Сантос, Кайлин Рамбо, Аксель Мансилла

Описание: Три подруги отправляются исследовать подводный разрушенный город, но вскоре выясняют, что посмотреть на руины приплыли не они одни. Запланированное развлечение оборачивается кошмаром - теперь ныряльщицам придется спасаться от кровожадных акул.

Качество: BDRip-AVC
Формат: MKV

Видео: 720x302 (2.40:1), 24 fps, х264 ~1092 kbps avg, 0.209 bit/pixel
Звук: 48 kHz, HE-AAC, 2 ch, ~64 kbps avg | RUS
General
Unique ID : 313395708567793539439101920037689863109 (0xEBC5D165A6959A7CCCF80740525BABC5)
Complete name : D:\OlLanDGroup\iTunes\47.Meters.Down.Uncaged.2019.BDRip(AVC).745Mb.OlLanDGroup.mkv
Format : Matroska
Format version : Version 4
File size : 741 MiB
Duration : 1 h 30 min
Overall bit rate : 1 151 kb/s
Movie name : 47.Meters.Down.Uncaged.2019.BDRip(AVC).745Mb.OlLanDGroup#Skandar#
Encoded date : UTC 2019-11-04 01:22:11
Writing application : mkvmerge v31.0.0 ('Dolores In A Shoestand') 64-bit
Writing library : libebml v1.3.6 + libmatroska v1.4.9

Video
ID : 1
Format : AVC
Format/Info : Advanced Video Codec
Format profile : High@L4.1
Format settings : CABAC / 10 Ref Frames
Format settings, CABAC : Yes
Format settings, ReFrames : 10 frames
Codec ID : V_MPEG4/ISO/AVC
Duration : 1 h 30 min
Bit rate : 1 092 kb/s
Width : 720 pixels
Height : 302 pixels
Display aspect ratio : 2.40:1
Frame rate mode : Constant
Frame rate : 23.976 (24000/1001) FPS
Color space : YUV
Chroma subsampling : 4:2:0
Bit depth : 8 bits
Scan type : Progressive
Bits/(Pixel*Frame) : 0.209
Stream size : 699 MiB (94%)
Title : 47.Meters.Down.Uncaged.2019.BDRip(AVC).745Mb.OlLanDGroup#Skandar#
Writing library : x264 core 146 r2538 121396c
Encoding settings : cabac=1 / ref=10 / deblock=1:-3:-3 / analyse=0x3:0x133 / me=umh / subme=11 / psy=1 / psy_rd=0.97:0.05 / mixed_ref=1 / me_range=48 / chroma_me=1 / trellis=2 / 8x8dct=1 / cqm=0 / deadzone=21,11 / fast_pskip=0 / chroma_qp_offset=-3 / threads=6 / lookahead_threads=1 / sliced_threads=0 / nr=0 / decimate=0 / interlaced=0 / bluray_compat=0 / constrained_intra=0 / bframes=11 / b_pyramid=2 / b_adapt=2 / b_bias=0 / direct=3 / weightb=1 / open_gop=0 / weightp=2 / keyint=240 / keyint_min=23 / scenecut=40 / intra_refresh=0 / rc_lookahead=40 / rc=2pass / mbtree=0 / bitrate=1092 / ratetol=1.0 / qcomp=0.60 / qpmin=0 / qpmax=69 / qpstep=4 / cplxblur=20.0 / qblur=0.5 / vbv_maxrate=50000 / vbv_bufsize=62500 / nal_hrd=none / filler=0 / ip_ratio=1.40 / pb_ratio=1.30 / aq=1:1.00
Language : Russian
Default : Yes
Forced : No

Audio
ID : 2
Format : AAC LC SBR
Format/Info : Advanced Audio Codec Low Complexity with Spectral Band Replication
Commercial name : HE-AAC
Format settings : Explicit
Codec ID : A_AAC-2
Duration : 1 h 30 min
Bit rate : 64.0 kb/s
Channel(s) : 2 channels
Channel layout : L R
Sampling rate : 48.0 kHz
Frame rate : 23.438 FPS (2048 SPF)
Compression mode : Lossy
Delay relative to video : 31 ms
Stream size : 41.2 MiB (6%)
Title : DUB [iTunes]
Language : Russian
Default : Yes
Forced : No

Text #1
ID : 3
Format : UTF-8
Codec ID : S_TEXT/UTF8
Codec ID/Info : UTF-8 Plain Text
Duration : 1 h 16 min
Bit rate : 59 b/s
Count of elements : 789
Stream size : 33.6 KiB (0%)
Title : Full
Language : Russian
Default : No
Forced : No

Text #2
ID : 4
Format : UTF-8
Codec ID : S_TEXT/UTF8
Codec ID/Info : UTF-8 Plain Text
Duration : 1 h 16 min
Bit rate : 34 b/s
Count of elements : 747
Stream size : 19.7 KiB (0%)
Title : Full
Language : English
Default : No
Forced : No

Menu
00:00:00.000 : en:00:00:00.000
00:04:53.793 : en:00:04:53.793
00:10:35.009 : en:00:10:35.009
00:14:18.107 : en:00:14:18.107
00:19:59.990 : en:00:19:59.990
00:23:56.101 : en:00:23:56.101
00:29:16.421 : en:00:29:16.421
00:35:00.390 : en:00:35:00.390
00:39:15.770 : en:00:39:15.770
00:44:44.890 : en:00:44:44.890
00:50:50.130 : en:00:50:50.130
00:54:37.232 : en:00:54:37.232
01:01:03.660 : en:01:01:03.660
01:05:18.665 : en:01:05:18.665
01:10:12.750 : en:01:10:12.750
01:15:22.518 : en:01:15:22.518
Релиз от:
pb.wtf



Скачать Синяя бездна 2 через торрент https://b.radikal.ru/b36/1910/2b/700334f401cb.png Скачать фильм Синяя бездна 2 через торрент бесплантно в хорошем качестве Описание: Три подруги отправляются исследовать подводный разрушенный город, но вскоре выясняют, что посмотреть на руины приплыли не они ... 10 10 1
Торрент: Зарегистрирован [2019-11-04 06:44] · скачан: 51 раз
Статус: √ проверено
Размер: 741 MB
Как cкачать? Как скачать Синяя бездна 2 через торрент | qTorrent

% Раздел Тема Автор DL S | L
Фильмы 2019 [DVDrip, WEB-DLRip, HDrip] (DUB, MVO) [ 1.73 GB ] Синяя бездна 2 / 47 Meters Down: Uncaged [2019 BDRip-AVC] - OlLanDGroup Skandar2019 Скачать
6 | 0

28-11-2019 20:33  

Отключить всю рекламу на сайте

    Дорогой пользователь! Огромная просьба, поблагодарите релизера, оцените раздачу и оставьте свои комментарий, если Вы скачали Синяя бездна 2 через торрент бесплатно! Внесите свою лепту в развитие PiratBit!
    Комментировать посты могут только пользователи прошедшие не сложную регистрацию
    Показать сообщения:    

    Синяя бездна 2 через торрент
    Скачать бесплатно Синяя бездна 2
    Синяя бездна 2 скачать торрент
    Синяя бездна 2 смотреть онлайн
    Cкачать фильм Синяя бездна 2 бесплатно
    Синяя бездна 2 скачать торрент в хорошем качестве
    Синяя бездна 2 смотреть онлайн бесплатно в хорошем качестве


    Вы не можете начинать темы
    Вы не можете отвечать на сообщения
    Вы не можете редактировать свои сообщения
    Вы не можете удалять свои сообщения
    Вы не можете голосовать в опросах
    Вы не можете прикреплять файлы к сообщениям
    Вы можете скачивать файлы