Ссылка на приватное зеркало нашего сайта всего за 1$. Внимание количество ограничено!!!

2 сезон

iTunes

1 сезон

1

2 сезон

2 сезон

iTunes

1 сезон

RePack

30

Новинка

ВАЖНО

ИГРА 18+

pack

RePack

MK11
pack

Забери бонус

RePack

jed

!!Акция!!

Alien_Rage

RePack

fifa19

RePack

Assassins Creed: Odyssey

RePack

NEED FOR SPEED™ PAYBACK

4 сезон

9 сезон

Бесстыжие 9 сезон

Все сериалы

все сериалы на PB.wtf

RePack

FAR CRY 5
  

Разборки в маленьком Токио / Showdown In Little Tokyo (Марк Л. Лестер) [1991, боевик, триллер, комедия, криминал, Blu-Ray Remux 1080p] 2xDUB, MVO, DVO, 5xAVO, 2xMVO (ukr) pb.wtf

Разборки в маленьком Токио через торрент pb.wtf

Размер: 25.29 GB | Добавлен: 1 год назад | Торрент скачан:0 раз
Скачать  

04-11-2019 14:02 Разборки в маленьком Токио Скачать торрент  

Разборки в маленьком Токио / Showdown In Little Tokyo
Год выпуска: 1991

Страна: США

Жанр: Боевик, триллер, комедия, криминал

Продолжительность: 01:18:22

Перевод: Дублированный, профессиональный (многоголосый), профессиональный (двухголосый), авторский (одноголосый)

Субтитры: Русские, английские

Режиссер: Марк Л. Лестер

rating

В ролях: Дольф Лундгрен, Брэндон Ли, Кэри-Хироюки Тагава, Тиа Каррере, Тосиро Обата, Филип Тан, Родни Кагеяма, Эрни Лайвли, Рене Гриффин, Рейд Асато, Такайо Фишер, Саймон Ри, Верни Уотсон-Джонсон, Ленни Имамура, Роджер Уайн, Сьюзэн Э. Кокс, Рик Крамер, Кейт Болдрофф, Джеральд Окамура, Роум Вихаро, Кинэн Томас, Стив Парк, Джим Исида, Рэчен Ассапиомонваит, Райан Рюисаки, Джефф Рэмси, Фил Чонг

Описание: Они - лос-анджелеские полицейские, которые перемежают удары с попадением в газетные заголовки, во время Разборки в маленьком Токио, Герой Дольфа Лундгрена - мускулистый американский самурай, сведущий в восточных традициях. Герой Брэндона Ли - деревенский увалень, которому предстоит немало драк. Им двоим придётся круто на войне против японской наркомафии Лос-Анджелеса.
Качество: Blu-Ray Remux 1080p
Формат: BDMV
Видео: MPEG-4 AVC, 35000 Кбит/с, 1920x1080
Аудио#1: Русский, AC3, 2 ch, 192 Кбит/с - DUB (R5)
Аудио#2: Русский, AC3, 2 ch, 192 Кбит/с - DUB (Варус Видео)
Аудио#3: Русский, AC3, 2 ch, 192 Кбит/с - MVO (ВГТРК)
Аудио#4: Русский, AC3, 2 ch, 192 Кбит/с - DVO (НТВ)
Аудио#5: Русский, DTS-HD, 2 ch, 2141 Кбит/с - AVO (Гаврилов)
Аудио#6: Русский, DTS-HD, 2 ch, 2143 Кбит/с - AVO (Володарский)
Аудио#7: Русский, AC3, 2 ch, 192 Кбит/с - AVO (Чадов)
Аудио#8: Русский, AC3, 2 ch, 192 Кбит/с - AVO (Кузнецов)
Аудио#9: Русский, AC3, 2 ch, 192 Кбит/с - AVO (Зереницын)
Аудио#10: Украинский, AC3, 2 ch, 192 Кбит/с - MVO (ICTV)
Аудио#11: Украинский, AC3, 2 ch, 192 Кбит/с - MVO (Интер)
Аудио#12: Английский, DTS-HD, 2 ch, 2127 Кбит/с
Видео
Идентификатор : 4113 (0x1011)
Идентификатор меню : 1 (0x1)
Формат : AVC
Формат/Информация : Advanced Video Codec
Профиль формата : High@L4.1
Настройки формата : CABAC / 4 Ref Frames
Параметр CABAC формата : Да
Параметр RefFrames формата : 4 кадра
Идентификатор кодека : 27
Продолжительность : 1 ч. 18 м.
Вид битрейта : Постоянный
Номинальный битрейт : 35,0 Мбит/сек
Ширина : 1920 пикселей
Высота : 1080 пикселей
Соотношение сторон : 16:9
Частота кадров : 23,976 (24000/1001) кадра/сек
Цветовое пространство : YUV
Субдискретизация насыщенности : 4:2:0
Битовая глубина : 8 бит
Тип развёртки : Прогрессивная
Бит/(Пиксели*Кадры) : 0.704

Аудио #1
Идентификатор : 4352 (0x1100)
Идентификатор меню : 1 (0x1)
Формат : AC-3
Формат/Информация : Audio Coding 3
Коммерческое название : Dolby Digital
Идентификатор кодека : 129
Продолжительность : 1 ч. 18 м.
Вид битрейта : Постоянный
Битрейт : 192 Кбит/сек
Каналы : 2 канала
ChannelLayout : L R
Частота : 48,0 КГц
Частота кадров : 31,250 кадров/сек (1536 SPF)
Битовая глубина : 16 бит
Метод сжатия : С потерями
Размер потока : 108 Мбайт (0%)
Язык : Russian
ServiceKind/String : Complete Main

Аудио #2
Идентификатор : 4353 (0x1101)
Идентификатор меню : 1 (0x1)
Формат : AC-3
Формат/Информация : Audio Coding 3
Коммерческое название : Dolby Digital
Идентификатор кодека : 129
Продолжительность : 1 ч. 18 м.
Вид битрейта : Постоянный
Битрейт : 192 Кбит/сек
Каналы : 2 канала
ChannelLayout : L R
Частота : 48,0 КГц
Частота кадров : 31,250 кадров/сек (1536 SPF)
Битовая глубина : 16 бит
Метод сжатия : С потерями
Размер потока : 108 Мбайт (0%)
Язык : Russian
ServiceKind/String : Complete Main

Аудио #3
Идентификатор : 4354 (0x1102)
Идентификатор меню : 1 (0x1)
Формат : AC-3
Формат/Информация : Audio Coding 3
Коммерческое название : Dolby Digital
Идентификатор кодека : 129
Продолжительность : 1 ч. 18 м.
Вид битрейта : Постоянный
Битрейт : 192 Кбит/сек
Каналы : 2 канала
ChannelLayout : L R
Частота : 48,0 КГц
Частота кадров : 31,250 кадров/сек (1536 SPF)
Битовая глубина : 16 бит
Метод сжатия : С потерями
Размер потока : 108 Мбайт (0%)
Язык : Russian
ServiceKind/String : Complete Main

Аудио #4
Идентификатор : 4355 (0x1103)
Идентификатор меню : 1 (0x1)
Формат : AC-3
Формат/Информация : Audio Coding 3
Коммерческое название : Dolby Digital
Идентификатор кодека : 129
Продолжительность : 1 ч. 18 м.
Вид битрейта : Постоянный
Битрейт : 192 Кбит/сек
Каналы : 2 канала
ChannelLayout : L R
Частота : 48,0 КГц
Частота кадров : 31,250 кадров/сек (1536 SPF)
Битовая глубина : 16 бит
Метод сжатия : С потерями
Размер потока : 108 Мбайт (0%)
Язык : Russian
ServiceKind/String : Complete Main

Аудио #5
Идентификатор : 4356 (0x1104)
Идентификатор меню : 1 (0x1)
Формат : DTS XLL
Формат/Информация : Digital Theater Systems
Коммерческое название : DTS-HD Master Audio
Режим смешивания : Stream extension
Идентификатор кодека : 134
Продолжительность : 1 ч. 18 м.
Вид битрейта : Переменный
Каналы : 2 канала
ChannelLayout : L R
Частота : 48,0 КГц
Частота кадров : 93,750 кадра/сек (512 SPF)
Битовая глубина : 24 бит
Метод сжатия : Без потерь
Язык : Russian

Аудио #6
Идентификатор : 4357 (0x1105)
Идентификатор меню : 1 (0x1)
Формат : DTS XLL
Формат/Информация : Digital Theater Systems
Коммерческое название : DTS-HD Master Audio
Режим смешивания : Stream extension
Идентификатор кодека : 134
Продолжительность : 1 ч. 18 м.
Вид битрейта : Переменный
Каналы : 2 канала
ChannelLayout : L R
Частота : 48,0 КГц
Частота кадров : 93,750 кадра/сек (512 SPF)
Битовая глубина : 24 бит
Метод сжатия : Без потерь
Язык : Russian

Аудио #7
Идентификатор : 4358 (0x1106)
Идентификатор меню : 1 (0x1)
Формат : AC-3
Формат/Информация : Audio Coding 3
Коммерческое название : Dolby Digital
Идентификатор кодека : 129
Продолжительность : 1 ч. 18 м.
Вид битрейта : Постоянный
Битрейт : 192 Кбит/сек
Каналы : 2 канала
ChannelLayout : L R
Частота : 48,0 КГц
Частота кадров : 31,250 кадров/сек (1536 SPF)
Битовая глубина : 16 бит
Метод сжатия : С потерями
Размер потока : 108 Мбайт (0%)
Язык : Russian
ServiceKind/String : Complete Main

Аудио #8
Идентификатор : 4359 (0x1107)
Идентификатор меню : 1 (0x1)
Формат : AC-3
Формат/Информация : Audio Coding 3
Коммерческое название : Dolby Digital
Идентификатор кодека : 129
Продолжительность : 1 ч. 18 м.
Вид битрейта : Постоянный
Битрейт : 192 Кбит/сек
Каналы : 2 канала
ChannelLayout : L R
Частота : 48,0 КГц
Частота кадров : 31,250 кадров/сек (1536 SPF)
Битовая глубина : 16 бит
Метод сжатия : С потерями
Размер потока : 108 Мбайт (0%)
Язык : Russian
ServiceKind/String : Complete Main

Аудио #9
Идентификатор : 4360 (0x1108)
Идентификатор меню : 1 (0x1)
Формат : AC-3
Формат/Информация : Audio Coding 3
Коммерческое название : Dolby Digital
Идентификатор кодека : 129
Продолжительность : 1 ч. 18 м.
Вид битрейта : Постоянный
Битрейт : 192 Кбит/сек
Каналы : 2 канала
ChannelLayout : L R
Частота : 48,0 КГц
Частота кадров : 31,250 кадров/сек (1536 SPF)
Битовая глубина : 16 бит
Метод сжатия : С потерями
Размер потока : 108 Мбайт (0%)
Язык : Russian
ServiceKind/String : Complete Main

Аудио #10
Идентификатор : 4361 (0x1109)
Идентификатор меню : 1 (0x1)
Формат : AC-3
Формат/Информация : Audio Coding 3
Коммерческое название : Dolby Digital
Идентификатор кодека : 129
Продолжительность : 1 ч. 18 м.
Вид битрейта : Постоянный
Битрейт : 192 Кбит/сек
Каналы : 2 канала
ChannelLayout : L R
Частота : 48,0 КГц
Частота кадров : 31,250 кадров/сек (1536 SPF)
Битовая глубина : 16 бит
Метод сжатия : С потерями
Размер потока : 108 Мбайт (0%)
Язык : Ukrainian
ServiceKind/String : Complete Main

Аудио #11
Идентификатор : 4362 (0x110A)
Идентификатор меню : 1 (0x1)
Формат : AC-3
Формат/Информация : Audio Coding 3
Коммерческое название : Dolby Digital
Идентификатор кодека : 129
Продолжительность : 1 ч. 18 м.
Вид битрейта : Постоянный
Битрейт : 192 Кбит/сек
Каналы : 2 канала
ChannelLayout : L R
Частота : 48,0 КГц
Частота кадров : 31,250 кадров/сек (1536 SPF)
Битовая глубина : 16 бит
Метод сжатия : С потерями
Размер потока : 108 Мбайт (0%)
Язык : Ukrainian
ServiceKind/String : Complete Main

Аудио #12
Идентификатор : 4363 (0x110B)
Идентификатор меню : 1 (0x1)
Формат : DTS XLL
Формат/Информация : Digital Theater Systems
Коммерческое название : DTS-HD Master Audio
Режим смешивания : Stream extension
Идентификатор кодека : 134
Продолжительность : 1 ч. 18 м.
Вид битрейта : Переменный
Каналы : 2 канала
ChannelLayout : L R
Частота : 48,0 КГц
Частота кадров : 93,750 кадра/сек (512 SPF)
Битовая глубина : 24 бит
Метод сжатия : Без потерь
Язык : English

Текст #1
Идентификатор : 4608 (0x1200)
Идентификатор меню : 1 (0x1)
Формат : PGS
Идентификатор кодека : 144
Язык : Russian

Текст #2
Идентификатор : 4609 (0x1201)
Идентификатор меню : 1 (0x1)
Формат : PGS
Идентификатор кодека : 144
Язык : English

Текст #3
Идентификатор : 4610 (0x1202)
Идентификатор меню : 1 (0x1)
Формат : PGS
Идентификатор кодека : 144
Язык : English

скриншот   скриншот   скриншот  

pb.wtf



Скачать Разборки в маленьком Токио через торрент http://pic1.kartinco.top/images/12/vrdcw.jpg Скачать фильм Разборки в маленьком Токио через торрент бесплантно в хорошем качестве Описание: Они - лос-анджелеские полицейские, которые перемежают удары с попадением в газетные заголовки, во время Разборки в маленьком ... 10 10 2
Info! Золотая раздача, скачанное не засчитывается.
Торрент: Зарегистрирован [2019-11-04 14:02] · скачан: 0 раз
Статус: √ проверено
Размер: 25.29 GB
Как cкачать? Как скачать Разборки в маленьком Токио через торрент | qTorrent

% Раздел Тема Автор DL S | L
Фильмы (HD 720p, 1080p) (48-60 fps) [ 3.2 GB ] Разборки в Маленьком Токио / Showdown In Little Tokyo [1991 BDRip 720p / 60 FPS ] от R.G. HD-Films slaventi-69 Скачать
1 | 0
Фильмы с авторской озвучкой [ 1.36 GB ] Разборка в маленьком Токио / Showdown in Little Tokyo [1991 BDRip] [AVO] killermax2013 Скачать
1 | 0
Фильмы (WEB-DL 720p, 1080p) [ 2.87 GB ] Разборки в маленьком Токио / Showdown in Little Tokyo [1991 HDTVRip 720p] DUB + AVO + Eng Drue Скачать
1 | 0

28-11-2019 20:33  

Отключить всю рекламу на сайте

04-11-2019 14:46 Разборки в маленьком Токио Скачать торрент  

Топик был перенесен из форума Для поглощённых раздач в форум Фильмы (Blu-ray, BD-Remux, HDDVD)


shullerpb.wtf



    Дорогой пользователь! Огромная просьба, поблагодарите релизера, оцените раздачу и оставьте свои комментарий, если Вы скачали Разборки в маленьком Токио через торрент бесплатно! Внесите свою лепту в развитие PiratBit!
    Комментировать посты могут только пользователи прошедшие не сложную регистрацию
    Показать сообщения:    

    Разборки в маленьком Токио через торрент
    Скачать бесплатно Разборки в маленьком Токио
    Разборки в маленьком Токио скачать торрент
    Разборки в маленьком Токио смотреть онлайн
    Cкачать фильм Разборки в маленьком Токио бесплатно
    Разборки в маленьком Токио скачать торрент в хорошем качестве
    Разборки в маленьком Токио смотреть онлайн бесплатно в хорошем качестве


    Вы не можете начинать темы
    Вы не можете отвечать на сообщения
    Вы не можете редактировать свои сообщения
    Вы не можете удалять свои сообщения
    Вы не можете голосовать в опросах
    Вы не можете прикреплять файлы к сообщениям
    Вы можете скачивать файлы