Ссылка на приватное зеркало нашего сайта всего за 1$. Внимание количество ограничено!!!

2 сезон

iTunes

1 сезон

1

2 сезон

2 сезон

iTunes

1 сезон

RePack

30

Новинка

ВАЖНО

ИГРА 18+

pack

RePack

MK11
pack

Забери бонус

RePack

jed

!!Акция!!

Alien_Rage

RePack

fifa19

RePack

Assassins Creed: Odyssey

RePack

NEED FOR SPEED™ PAYBACK

4 сезон

9 сезон

Бесстыжие 9 сезон

Все сериалы

все сериалы на PB.wtf

RePack

FAR CRY 5
  

Мой друг Робот / Robbi, Tobbi und das Fliewatüüt (Вольфганг Гроос) [2016, фантастика, драма, комедия, приключения, семейный, WEB-DL 1080p] DUB [IVI] pb.wtf

Мой друг Робот через торрент pb.wtf

Размер: 4.03 GB | Добавлен: 1 год 1 мес. назад | Торрент скачан:50 раз
Скачать  

04-11-2019 18:14 Мой друг Робот Скачать торрент  

Мой друг Робот / Robbi, Tobbi und das Fliewatüüt
Год выпуска: 2016
Страна: Германия, Бельгия
Жанр: фантастика, драма, комедия, приключения, семейный
Продолжительность: 01:45:11
Перевод: Дублированный | IVI
Субтитры: отсутствуют

Режиссер: Вольфганг Гроос

rating


В ролях: Арсений Бультман, Александра Мария Лара, Сэм Райли, Фридрих Мюке, Бьярне Медел, Ральф Касперс, Йордис Трибель, Мелина Мардини, Оливер Кляйнфельд, Киран Уэст

Описание: Мальчик Тобби встречает робота Робби и решает помочь ему найти родителей, которых тот потерял при крушении звездолета. Тобби всего 11 лет, но он уже очень хорошо знаком с наукой. Юный талантливый изобретатель и его новый друг робот создают автомобиль, который способен летать и плавать, и отправляются навстречу приключениям. Их преследуют секретные агенты технологической корпорации, желающие заполучить загадочного робота и разобрать его.

Качество: WEB-DL 1080p
Формат: MKV

Видео: (x264), 5120 Kb/s, 1920x1036
Аудио: AC3, 384 Kb/s (6 ch)
скриншот  скриншот  скриншот  скриншот  

Общее
Уникальный идентификатор : 186533204771466258034531093954389565559 (0x8C54FD0C5114CDD1988D2C84A0476077)
Полное имя : Moy.drug.Robot.2016.WEB.DL.1080p.ELEKTRI4KA.UNIONGANG.mkv
Формат : Matroska
Версия формата : Version 4
Размер файла : 4,03 Гбайт
Продолжительность : 1 ч. 45 м.
Общий поток : 5482 Кбит/сек
Дата кодирования : UTC 2019-11-03 19:12:58
Программа кодирования : mkvmerge v8.3.0 ('Over the Horizon') 64bit
Библиотека кодирования : libebml v1.3.1 + libmatroska v1.4.2

Видео
Идентификатор : 1
Формат : AVC
Формат/Информация : Advanced Video Codec
Профиль формата : High@L4
Настройки формата : CABAC / 4 Ref Frames
Параметр CABAC формата : Да
Параметр RefFrames формата : 4 кадра
Идентификатор кодека : V_MPEG4/ISO/AVC
Продолжительность : 1 ч. 45 м.
Битрейт : 5120 Кбит/сек
Ширина : 1920 пикселей
Высота : 1036 пикселей
Соотношение сторон : 1,85:1
Режим частоты кадров : Постоянный
Частота кадров : 24,000 кадра/сек
Цветовое пространство : YUV
Субдискретизация насыщенности : 4:2:0
Битовая глубина : 8 бит
Тип развёртки : Прогрессивная
Бит/(Пиксели*Кадры) : 0.107
Размер потока : 3,74 Гбайт (93%)
Библиотека кодирования : x264 core 148
Настройки программы : cabac=1 / ref=3 / deblock=1:0:0 / analyse=0x3:0x113 / me=hex / subme=7 / psy=1 / psy_rd=1.00:0.00 / mixed_ref=1 / me_range=16 / chroma_me=1 / trellis=1 / 8x8dct=1 / cqm=0 / deadzone=21,11 / fast_pskip=1 / chroma_qp_offset=-2 / threads=24 / lookahead_threads=4 / sliced_threads=0 / nr=0 / decimate=1 / interlaced=0 / bluray_compat=0 / constrained_intra=0 / bframes=6 / b_pyramid=2 / b_adapt=1 / b_bias=0 / direct=1 / weightb=1 / open_gop=0 / weightp=2 / keyint=48 / keyint_min=25 / scenecut=0 / intra_refresh=0 / rc_lookahead=40 / rc=2pass / mbtree=1 / bitrate=5120 / ratetol=1.0 / qcomp=0.60 / qpmin=0 / qpmax=69 / qpstep=4 / cplxblur=20.0 / qblur=0.5 / vbv_maxrate=7680 / vbv_bufsize=20480 / nal_hrd=none / filler=0 / ip_ratio=1.40 / aq=1:1.00
Default : Да
Forced : Нет

Аудио
Идентификатор : 2
Формат : AC-3
Формат/Информация : Audio Coding 3
Коммерческое название : Dolby Digital
Идентификатор кодека : A_AC3
Продолжительность : 1 ч. 45 м.
Вид битрейта : Постоянный
Битрейт : 384 Кбит/сек
Каналы : 6 каналов
Channel layout : L R C LFE Ls Rs
Частота : 48,0 КГц
Частота кадров : 31,250 кадров/сек (1536 SPF)
Битовая глубина : 16 бит
Метод сжатия : С потерями
Размер потока : 289 Мбайт (7%)
Язык : Russian
ServiceKind/String : Complete Main
Default : Да
Forced : Нет

pb.wtf



Скачать Мой друг Робот через торрент https://i5.imageban.ru/out/2019/11/03/03cde846cc2d9546dd1624a7b441b732.png Скачать фильм Мой друг Робот через торрент бесплантно в хорошем качестве Описание: Мальчик Тобби встречает робота Робби и решает помочь ему найти родителей, которых тот потерял при крушении звездолета. Тобби ... 10 10 4
Торрент: Зарегистрирован [2019-11-04 18:14] · скачан: 50 раз
Статус: √ проверено
Размер: 4.03 GB
Как cкачать? Как скачать Мой друг Робот через торрент | qTorrent

28-11-2019 20:33  

Отключить всю рекламу на сайте

    Дорогой пользователь! Огромная просьба, поблагодарите релизера, оцените раздачу и оставьте свои комментарий, если Вы скачали Мой друг Робот через торрент бесплатно! Внесите свою лепту в развитие PiratBit!
    Комментировать посты могут только пользователи прошедшие не сложную регистрацию
    Показать сообщения:    

    Мой друг Робот через торрент
    Скачать бесплатно Мой друг Робот
    Мой друг Робот скачать торрент
    Мой друг Робот смотреть онлайн
    Cкачать фильм Мой друг Робот бесплатно
    Мой друг Робот скачать торрент в хорошем качестве
    Мой друг Робот смотреть онлайн бесплатно в хорошем качестве


    Вы не можете начинать темы
    Вы не можете отвечать на сообщения
    Вы не можете редактировать свои сообщения
    Вы не можете удалять свои сообщения
    Вы не можете голосовать в опросах
    Вы не можете прикреплять файлы к сообщениям
    Вы можете скачивать файлы