Ссылка на приватное зеркало всего за 1$. Внимание количество ограничено!!!

iTunes

1+1

iTunes

мы

WEB-DL

1

iTunes

Чернобыль

iTunes

Ральф против интернета

Лицензия

ПШазам

Лицензия

Оно 2

Лицензия

30
pack

Вам бонус

ВАЖНО

!!Акция!!

Alien_RageХит недели

RePack

Resident Evil 21

ИГРА 18+

pack

RePack

jed

!!Акция!!

Alien_Rage

RePack

fifa19

RePack

Assassins Creed: Odyssey

RePack

NEED FOR SPEED™ PAYBACK

3 сезон

9 сезон

Бесстыжие 9 сезон

Все сериалы

все сериалы на PB.wtf

RePack

FAR CRY 5
Ребята, катастрофически не хватает 1900р. для оплаты серверов за Октябрь (всвязи с блокировками трафик упал в 3 раза), 1-2р., выручайте.
  

Волшебник (Михаил Морсков) [2019 г., комедия, драма, WEB-DLRip, Не требуется Русский "iTunes"] pb.wtf

Волшебник через торрент pb.wtf

Раздают: 1 [ 0 KB/s ]
Размер: 709 MB | Добавлен: 1 мес. 9 д. назад | Торрент скачан:50 раз
Скачать  

04-11-2019 18:26 Волшебник Скачать торрент  

Волшебник
Год выпуска: 2019
Страна: Россия / RSS Production
Жанр: комедия, драма
Продолжительность: 01:22:57
Перевод: Не требуется Русский(iTunes)

Режиссер: Михаил Морсков



В ролях: Семен Трескунов, Максим Суханов, Ангелина Стречина, Ирина Купченко, Владимир Капустин, Ирина Яковлева, Иван Охлобыстин, Сергей Чонишвили, Сергей Аброскин, Екатерина Маликова, Евгений Хазов, Сергей Чихачёв

Описание: В прошлом популярный рок-музыкант Фима влачит жалкое существование, растратив свой талант и предаваясь разгульному образу жизни. Все меняется, когда уроки на гитаре у него начинает брать мальчик Рома, страдающий ДЦП и отчаянно жаждущий завоевать сердце своей одноклассницы Маши.

Качество: WEB-DLRip
Формат: AVI
Видео кодек: DivX
Аудио кодек: MP3
Видео: 640x240 (2.67:1), 25 fps, DivX Codec 4.x ~1057 kbps avg, 0.28 bit/pixel
Аудио: 48 kHz, MPEG Layer 3, 2 ch, ~128.00 kbps avg
скриншот   скриншот   скриншот   скриншот   скриншот   скриншот   скриншот   скриншот  

Общее
Полное имя : F:\ФИЛЬМЫ\Волшебник.2019.WEB-DLRip.avi
Формат : AVI
Формат/Информация : Audio Video Interleave
Размер файла : 709 Мбайт
Продолжительность : 1 ч. 22 м.
Общий поток : 1195 Кбит/сек
Программа кодирования : VirtualDubMod 1.5.10.3 | www.virtualdub-fr.org || (build 2550/release)
Библиотека кодирования : VirtualDubMod build 2550/release

Видео
Идентификатор : 0
Формат : MPEG-4 Visual
Профиль формата : Advanced Simple@L5
Настройки формата : BVOP3 / GMC3 / QPel
Параметр BVOP формата : 3
Параметр QPel формата : Да
Параметр GMC формата : 3 точки перехода
Параметр матрицы формата : Default (MPEG)
Идентификатор кодека : DIVX
Идентификатор кодека/Информация : Project Mayo
Идентификатор кодека/Подсказка : DivX 4
Продолжительность : 1 ч. 22 м.
Битрейт : 1057 Кбит/сек
Ширина : 640 пикселей
Высота : 240 пикселей
Соотношение сторон : 2,667
Частота кадров : 25,000 кадров/сек
Цветовое пространство : YUV
Субдискретизация насыщенности : 4:2:0
Битовая глубина : 8 бит
Тип развёртки : Прогрессивная
Метод сжатия : С потерями
Бит/(Пиксели*Кадры) : 0.275
Размер потока : 627 Мбайт (88%)
Библиотека кодирования : XviD 1.2.1 (UTC 2008-12-04)

Аудио
Идентификатор : 1
Формат : MPEG Audio
Версия формата : Version 1
Профиль формата : Layer 3
Настройки формата : Joint stereo / MS Stereo
Идентификатор кодека : 55
Идентификатор кодека/Подсказка : MP3
Продолжительность : 1 ч. 22 м.
Вид битрейта : Постоянный
Битрейт : 128 Кбит/сек
Каналы : 2 канала
Частота : 48,0 КГц
Частота кадров : 41,667 кадра/сек (1152 SPF)
Метод сжатия : С потерями
Размер потока : 75,9 Мбайт (11%)
Выравнивание : Соединение по промежуткам
Продолжительность промежутка : 40 мс. (1,00 видеокадр)
Время предзагрузки промежутка : 504 мс.
Библиотека кодирования : LAME3.99r
Настройки программы : -m j -V 4 -q 2 -lowpass 17 -b 128

pb.wtf



Скачать Волшебник через торрент http://pic1.kartinco.top/images/12/ythot.jpg Скачать фильм Волшебник через торрент бесплантно в хорошем качестве Описание: В прошлом популярный рок-музыкант Фима влачит жалкое существование, растратив свой талант и предаваясь разгульному образу жизни. ... 10 10 1
Торрент: Зарегистрирован [2019-11-04 18:26] · скачан: 50 раз
Статус: √ проверено
Размер: 709 MB
Как cкачать? Как скачать Волшебник через торрент | qTorrent

% Раздел Тема Автор DL S | L
Наши новые фильмы 2018-2019 [ 1.46 GB ] Волшебник [2019 WEB-DLRip] bober100 Скачать
6 | 0
Наши новые фильмы 2018-2019 [ 746 MB ] Волшебник [2019 WEB-DLRip-AVC] - OllanDGroup Skandar2019 Скачать
4 | 0
Наши фильмы (HD, WEB-DL 720p, 1080p) [ 3.19 GB ] Волшебник [2019 WEB-DL 1080p] bober100 Скачать
5 | 0
Наши сериалы [ 5.02 GB ] Волшебник / Серии: 1-8 из 8 [2019 SATRip-AVC] aleksan55 Скачать
3 | 0
Наши сериалы [ 11.73 GB ] Волшебник / Сезон: 1 / Серии: 1-8 из 8 [2019 HDTVRip 720p] bober100 Скачать
1 | 0
Наши сериалы [ 6.14 GB ] Волшебник / Сезон: 1 / Серии: 1-8 из 8 [2019 HDTVRip-AVC] bober100 Скачать
1 | 0
Наши сериалы [ 5.04 GB ] Волшебник / Сезон: 1 / Серии: 1-8 из 8 [2019 HDTVRip] bober100 Скачать
1 | 0

28-11-2019 20:33  

Отключить всю рекламу на сайте

    Дорогой пользователь! Огромная просьба, поблагодарите релизера, оцените раздачу и оставьте свои комментарий, если Вы скачали Волшебник через торрент бесплатно! Внесите свою лепту в развитие PiratBit!
    Комментировать посты могут только пользователи прошедшие не сложную регистрацию
    Показать сообщения:    

    Волшебник через торрент
    Скачать бесплатно Волшебник
    Волшебник скачать торрент
    Волшебник смотреть онлайн
    Cкачать фильм Волшебник бесплатно
    Волшебник скачать торрент в хорошем качестве
    Волшебник смотреть онлайн бесплатно в хорошем качестве


    Вы не можете начинать темы
    Вы не можете отвечать на сообщения
    Вы не можете редактировать свои сообщения
    Вы не можете удалять свои сообщения
    Вы не можете голосовать в опросах
    Вы не можете прикреплять файлы к сообщениям
    Вы можете скачивать файлы