Ссылка на приватное зеркало нашего сайта всего за 1$. Внимание количество ограничено!!!

2 сезон

iTunes

1 сезон

1

iTunes

iTunes

iTunes

1 сезон

RePack

30

ИГРА 18+

pack

ВАЖНО

!!Акция!!

Alien_RageХит недели

RePack

MK11
pack

Забери бонус

RePack

jed

!!Акция!!

Alien_Rage

RePack

fifa19

RePack

Assassins Creed: Odyssey

RePack

NEED FOR SPEED™ PAYBACK

4 сезон

9 сезон

Бесстыжие 9 сезон

Все сериалы

все сериалы на PB.wtf

RePack

FAR CRY 5
  

Отчим / Сезон: 1 / Серии: 1-16 из 16 (Сергей Гинзбург) [2019, Драма, историческая сага, HDTVRip-AVC] pb.wtf

Отчим через торрент pb.wtf

Качают: 1 [ 0 KB/s ]
Размер: 12.47 GB | Добавлен: 11 мес. назад | Торрент скачан:78 раз
Скачать  

04-11-2019 18:40 Отчим Скачать торрент  

Отчим
Год выпуска: 2019
Страна: Россия
Жанр: Драма, историческая сага
Продолжительность: ~ 00:50:00 серия
Субтитры: отсутствуют

Режиссер: Сергей Гинзбург

В ролях: Карина Андоленко, Антон Хабаров, Артём Быстров, Александр Бухаров, Владимир Гостюхин, Василий Бочкарёв, Сергей Власов (II), Сергей Соцердотский, Роман Евдокимов, Ольга Веникова, Ксения Теплова, Игорь Сигов, Ефим Цуба, Ольга Нефёдова, Вера Кавалерова, Алла Пролич, Наталья Холодович, Александр Островский, Сергей Ходьков, Вильма Кутавичюте, Елизавета Бугулова, Василиса Измайлова, Алиса Лозовская, Марина Поддубная, Алексей Колган, Олег Ткачёв, Анастасия Липянская

Описание: История начинается в 1952 году, в сибирской глубинке: первая красавица посёлка Настя семь лет ждёт мужа с фронта. Её жалеют, но за спиной шепчутся: чего ждать, кому было суждено прийти – пришли…. Однажды ночью в дом Насти стучится новый председатель местного крайкома партии - молодой, галантный мужчина Игорь Галицкий. Эта встреча становится судьбоносной. Вместе они пройдут трудные испытания, их истинное, глубокое и взаимное чувство преодолеет «проверку на прочность». И первым таким испытанием станет внезапное возвращение Ивана, мужа Насти. Тайна, которую он скрывает, еще больше разделяет его с семьей и делает жизнь главной героини невыносимой. Суровое время беспощадно. По доносу снят с поста и арестован самый дорогой для Насти человек – Игорь. На фоне драматических событий, разыгрывающихся в стране, героям саги предстоит проделать нелегкий путь, чтобы обрести простое и такое хрупкое Счастье.

Качество: HDTVRip-AVC
Формат: MKV

Видео: MPEG-4 AVC, ~ 2000 Кбит/с, 1024x576, 25 кадр/с
Аудио: AC3, 2 ch, 192 Кбит/с
скриншот  скриншот  скриншот  скриншот  

Общее
Уникальный идентификатор : 193727575925624870498564876515739028949 (0x91BE92EE934B8EC7A89085076ADDCDD5)
Полное имя : D:\Отчим.(2019).HDTVRip.(AVC).Files-x\01.Otchim.(2019).HDTVRip.(AVC).by.Серый1779.Files-x.mkv
Формат : Matroska
Версия формата : Version 2
Размер файла : 803 Мбайт
Продолжительность : 51 м. 8 с.
Общий поток : 2194 Кбит/сек
Дата кодирования : UTC 2019-11-04 18:11:45
Программа кодирования : mkvmerge v7.8.0 ('River Man') 32bit built on Apr 3 2015 12:11:22
Библиотека кодирования : libebml v1.3.1 + libmatroska v1.4.2

Видео
Идентификатор : 1
Формат : AVC
Формат/Информация : Advanced Video Codec
Профиль формата : High@L4.1
Параметр CABAC формата : Да
Параметр RefFrames формата : 9 кадров
Идентификатор кодека : V_MPEG4/ISO/AVC
Продолжительность : 51 м. 8 с.
Битрейт : 2000 Кбит/сек
Ширина : 1024 пикселя
Высота : 576 пикселей
Соотношение сторон : 16:9
Режим частоты кадров : Постоянный
Частота кадров : 25,000 кадров/сек
Цветовое пространство : YUV
Субдискретизация насыщенности : 4:2:0
Битовая глубина : 8 бит
Тип развёртки : Прогрессивная
Бит/(Пиксели*Кадры) : 0.136
Размер потока : 716 Мбайт (89%)
Библиотека кодирования : x264 core 146 r2538 121396c
Настройки программы : cabac=1 / ref=9 / deblock=1:-2:-1 / analyse=0x3:0x133 / me=umh / subme=9 / psy=1 / psy_rd=1.00:0.15 / mixed_ref=1 / me_range=32 / chroma_me=1 / trellis=2 / 8x8dct=1 / cqm=0 / deadzone=21,11 / fast_pskip=0 / chroma_qp_offset=-3 / threads=18 / lookahead_threads=3 / sliced_threads=0 / nr=0 / decimate=1 / interlaced=0 / bluray_compat=0 / constrained_intra=0 / bframes=9 / b_pyramid=2 / b_adapt=2 / b_bias=0 / direct=1 / weightb=1 / open_gop=0 / weightp=2 / keyint=250 / keyint_min=25 / scenecut=40 / intra_refresh=0 / rc=2pass / mbtree=0 / bitrate=2000 / ratetol=1.0 / qcomp=0.60 / qpmin=0 / qpmax=69 / qpstep=4 / cplxblur=20.0 / qblur=0.5 / ip_ratio=1.40 / pb_ratio=1.30 / aq=2:1.00
Default : Да
Forced : Нет
Цветовой диапазон : Limited
Основные цвета : BT.709
Характеристики трансфера : BT.709
Коэффициенты матрицы : BT.709

Аудио
Идентификатор : 2
Формат : AC-3
Формат/Информация : Audio Coding 3
Расширение режима : CM (complete main)
Параметр Endianness формата : Big
Идентификатор кодека : A_AC3
Продолжительность : 51 м. 8 с.
Вид битрейта : Постоянный
Битрейт : 192 Кбит/сек
Каналы : 2 канала
Расположение каналов : Front: L R
Частота : 48,0 КГц
Частота кадров : 31,250 кадров/сек (1536 spf)
Метод сжатия : С потерями
Размер потока : 70,2 Мбайт (9%)
Default : Да
Forced : Нет

Раздача ведётся путём добавления новых серий, при каждом добавлении создаётся новый торрент. Чтобы начать докачку новой серии, пользователям необходимо сделать следующее:

- Остановить скачивание.
- Удалить старый торрент у себя из клиента (старые серии удалять не надо).
- Скачать новый торрент и запустить его у себя в клиенте вместо старого, при этом указать клиенту путь в старую папку куда и должно происходить скачивание новых серий.

Ваш клиент при этом должен произвести хеширование (проверку) старой папки (если не производит сам - помогите ему сделать это), и будет докачивать только те серии которых у вас ещё нет. Старые серии при этом не удаляются, а продолжают раздаваться!
Если вы уже удалили старые серии, то предотвратить повторную закачку старых серий можно, отжав галочку в соответствующих местах при запуске нового торрента. По возможности, желательно не удалять старые серии как можно дольше, чтобы релизер не столько продолжал раздавать старые серии, а смог сконцентрироваться на новых.
pb.wtf



Скачать Отчим через торрент http://d.radikal.ru/d10/1911/4e/147d51e826cc.jpg Скачать фильм Отчим через торрент бесплантно в хорошем качестве Описание: История начинается в 1952 году, в сибирской глубинке: первая красавица посёлка Настя семь лет ждёт мужа с фронта. Её жалеют, но ... 10 10 7
Торрент: Зарегистрирован [2019-11-15 09:19] · скачан: 78 раз
Статус: √ проверено
Размер: 12.47 GB
Как cкачать? Как скачать Отчим через торрент | qTorrent

% Раздел Тема Автор DL S | L
Наши сериалы [ 8.71 GB ] Отчим / Сезон: 1 / Серии: 1-16 из 16 [2019 историческая сага WEB-DLRip] bober100 Скачать
1 | 1
Наши сериалы [ 20.99 GB ] Отчим / Сезон: 1 / Серии: 1-16 из 16 [2019 историческая сага HDTVRip 720p] bober100 Скачать
1 | 0
Наши сериалы [ 10.19 GB ] Отчим / Сезон: 1 / Серии: 1-16 из 16 [2019 историческая сага HDTVRip] bober100 Скачать
2 | 0
Наши сериалы [ 37.22 GB ] Отчим / Сезон: 1 / Серии: 1-16 из 16 [2019 историческая сага HDTV 1080i] bober100 Скачать
1 | 0
Наши сериалы [ 21.75 GB ] Отчий берег / Сезон: 1 / Серии: 1-16 из 16 [2017 HDTVRip 720p] bober100 Скачать
2 | 0
Наши сериалы [ 36.33 GB ] Отчий берег / Сезон: 1 / Серии: 1-16 из 16 [2017 HDTV 1080i] bober100 Скачать
1 | 0

28-11-2019 20:33  

Отключить всю рекламу на сайте

    Дорогой пользователь! Огромная просьба, поблагодарите релизера, оцените раздачу и оставьте свои комментарий, если Вы скачали Отчим через торрент бесплатно! Внесите свою лепту в развитие PiratBit!
    Комментировать посты могут только пользователи прошедшие не сложную регистрацию
    Показать сообщения:    

    Отчим через торрент
    Скачать бесплатно Отчим
    Отчим скачать торрент
    Отчим смотреть онлайн
    Cкачать фильм Отчим бесплатно
    Отчим скачать торрент в хорошем качестве
    Отчим смотреть онлайн бесплатно в хорошем качестве


    Вы не можете начинать темы
    Вы не можете отвечать на сообщения
    Вы не можете редактировать свои сообщения
    Вы не можете удалять свои сообщения
    Вы не можете голосовать в опросах
    Вы не можете прикреплять файлы к сообщениям
    Вы можете скачивать файлы