Ссылка на приватное зеркало всего за 1$. Внимание количество ограничено!!!

OK

1+1

iTunes

мы

OK

1

WEB-DLRip

Джокер

Пифагор

Ведьмак / The Witcher сериал

iTunes

ПШазам

ОК

Оно 2

iTunes

30
pack

Вам бонус

ВАЖНО

!!Акция!!

Alien_RageХит недели

RePack

Resident Evil 21

ИГРА 18+

pack

RePack

jed

RePack

fifa19

RePack

Assassins Creed: Odyssey

RePack

NEED FOR SPEED™ PAYBACK

4 сезон

9 сезон

Бесстыжие 9 сезон

Все сериалы

все сериалы на PB.wtf

RePack

FAR CRY 5
  

Видеть / See / Сезон: 1 / Серии: 1-8 из 8 (Френсис Лоуренс) [2019, фантастика, драма, WEB 720p] MVO [Lostfilm] pb.wtf

Видеть через торрент pb.wtf

Раздают: 15 [ 2 MB/s ] Качают: 8 [ 0 KB/s ]
Размер: 11.4 GB | Добавлен: 1 мес. 17 д. назад | Торрент скачан:86 раз
Скачать  

04-11-2019 19:55 Видеть Скачать торрент  

Видеть | See
«***»
Производство: США
Год выпуска: 2019
Жанр: фантастика, драма
Продолжительность: ~ 00:57:00 серия
Премьера (мир): 1 ноября 2019
Перевод: Профессиональный (многоголосый закадровый) | Lostfilm
Субтитры: Русские, английские (SDH)

Режиссёр: Френсис Лоуренс, Андерс Энгстрем, Стивен Серджик

В ролях: Элфри Вудард, Джейсон Момоа, Сильвия Хукс, Хера Хильмар, Кристиан Камарго, Арчи Мадекве, Неста Купер, Yadira Guevara-Prip, Джош Блэкер, Кристиан Слоун

Описание:
В далёком будущем человеческая раса полностью лишилась зрения. Чтобы выжить, людям пришлось найти новый способ сосуществовать, строить и добывать пищу. Всё меняется, когда в семье бесстрашного воина Бабы Восса рождаются зрячие близнецы. Их появление рискует нарушить хрупкий баланс нового мира и ввергнуть успокоившуюся цивилизацию в хаос.



Качество видео: WEB 720p
Формат: MKV

Видео: AVC, 1114 x 528 (2.110), 23.976 fps, ~2104 kbps
Аудио Rus: AC-3, 48 kHz, 6 ch, 384 kbps |Lostfilm|
Аудио Eng: AC-3, 48 kHz, 6 ch, 384 kbps |Original|


Реклама: Отсутствует
Общее
Уникальный идентификатор : 151119254820735923666522282881632164119 (0x71B0828277A56BF7DA19B12883FBD917)
Полное имя : E:\_Сериалы\_Сериалы\Видеть\See.S01.720p.WEB.LostFilm\See.S01E01.720p.WEB.LostFilm.mkv
Формат : Matroska
Версия формата : Version 4
Размер файла : 1,15 Гбайт
Продолжительность : 57 м. 30 с.
Общий поток : 2874 Кбит/сек
Дата кодирования : UTC 2019-11-09 17:17:24
Программа кодирования : mkvmerge v40.0.0 ('Old Town Road + Pony') 64-bit
Библиотека кодирования : libebml v1.3.9 + libmatroska v1.5.2

Видео
Идентификатор : 1
Формат : AVC
Формат/Информация : Advanced Video Codec
Профиль формата : High@L3.1
Настройки формата : CABAC / 5 Ref Frames
Параметр CABAC формата : Да
Параметр RefFrames формата : 5 кадров
Идентификатор кодека : V_MPEG4/ISO/AVC
Продолжительность : 57 м. 30 с.
Битрейт : 2104 Кбит/сек
Ширина : 1114 пикселей
Высота : 528 пикселей
Соотношение сторон : 2,110
Режим частоты кадров : Постоянный
Частота кадров : 23,976 (24000/1001) кадра/сек
Цветовое пространство : YUV
Субдискретизация насыщенности : 4:2:0
Битовая глубина : 8 бит
Тип развёртки : Прогрессивная
Бит/(Пиксели*Кадры) : 0.149
Размер потока : 865 Мбайт (73%)
Язык : English
Default : Да
Forced : Нет
Цветовой диапазон : Limited
Основные цвета : BT.709
Характеристики трансфера : BT.709
Коэффициенты матрицы : BT.709

Аудио #1
Идентификатор : 2
Формат : AC-3
Формат/Информация : Audio Coding 3
Коммерческое название : Dolby Digital
Идентификатор кодека : A_AC3
Продолжительность : 57 м. 30 с.
Вид битрейта : Постоянный
Битрейт : 384 Кбит/сек
Каналы : 6 каналов
ChannelLayout : L R C LFE Ls Rs
Частота : 48,0 КГц
Частота кадров : 31,250 кадров/сек (1536 SPF)
Метод сжатия : С потерями
Размер потока : 158 Мбайт (13%)
Язык : Russian
ServiceKind/String : Complete Main
Default : Да
Forced : Нет

Аудио #2
Идентификатор : 3
Формат : AC-3
Формат/Информация : Audio Coding 3
Коммерческое название : Dolby Digital
Идентификатор кодека : A_AC3
Продолжительность : 57 м. 30 с.
Вид битрейта : Постоянный
Битрейт : 384 Кбит/сек
Каналы : 6 каналов
ChannelLayout : L R C LFE Ls Rs
Частота : 48,0 КГц
Частота кадров : 31,250 кадров/сек (1536 SPF)
Метод сжатия : С потерями
Размер потока : 158 Мбайт (13%)
Язык : English
ServiceKind/String : Complete Main
Default : Нет
Forced : Нет

Текст #1
Идентификатор : 4
Формат : UTF-8
Идентификатор кодека : S_TEXT/UTF8
Идентификатор кодека/Информация : UTF-8 Plain Text
Продолжительность : 56 м. 32 с.
Битрейт : 59 бит/сек
ElementCount : 497
Размер потока : 24,7 Кбайт (0%)
Язык : Russian
Default : Нет
Forced : Нет

Текст #2
Идентификатор : 5
Формат : UTF-8
Идентификатор кодека : S_TEXT/UTF8
Идентификатор кодека/Информация : UTF-8 Plain Text
Продолжительность : 55 м. 4 с.
Битрейт : 35 бит/сек
ElementCount : 487
Размер потока : 14,3 Кбайт (0%)
Язык : English
Default : Нет
Forced : Нет

Текст #3
Идентификатор : 6
Формат : UTF-8
Идентификатор кодека : S_TEXT/UTF8
Идентификатор кодека/Информация : UTF-8 Plain Text
Продолжительность : 55 м. 54 с.
Битрейт : 40 бит/сек
ElementCount : 601
Размер потока : 16,8 Кбайт (0%)
Язык : English
Default : Нет
Forced : Нет
Раздача ведётся путём добавления новых серий; при каждом добавлении создаётся новый торрент.
Чтобы начать докачку новой серии, пользователям необходимо сделать следующее:
1. остановить скачивание,
2. удалить старый торрент у себя из клиента (старые серии удалять не надо),
3. скачать новый торрент и запустить его у себя в клиенте вместо старого, при этом указать клиенту путь в старую папку, куда и должно происходить скачивание новых серий.

Ваш клиент при этом должен произвести хеширование (проверку) старой папки (если не производит сам - помогите ему сделать это), и будет докачивать только те серии которых у вас ещё нет. Старые серии при этом не удаляются, а продолжают раздаваться!

Eсли вы уже удалили старые серии, то предотвратить повторную закачку старых серий можно, отжав галочку в соответствующих местах при запуске нового торрента. По возможности, желательно не удалять старые серии как можно дольше, чтобы релизёр не столько продолжал раздавать старые серии, а смог сконцентрироваться на новых.

Совет для тех, кто не хочет ждать перехеширования:
Создайте ещё одну папку рядом с папкой сериала (рядом, а не в ней!!!). Каждую новую серию после удачной загрузки копируйте в новую папку так чтобы ваша основная папка всегда была пуста. Когда ваш новый торрент предложит вам закачать все файлы, выберете только последнюю. Для сидирования же укажите адрес новой папки.

Как закачать отдельный файл из торрента или докачать ранее пропущенные файлы торрента!
1. Открыть торрент
2. Снять галки с тех файлов торрента, которые мы не хотим закачивать. Оставляем только на нужных нам файлах (файле).
3. Нажать О.К.

В клиенте utorrent

Инструкция

1) Открыть торрент


2) Снять галки с тех файлов торрента, которые мы не хотим закачивать:

* либо вручную, снимая с каждого файла галку( скрин №1)
* либо, нажав кнопку "Снять метки (Select None)", сняв сразу со всех файлов(скрин №2)
№1

№2

Оставляем только на нужных нам файлах (файле).

3)Нажать О.К
Приятного просмотра!!!pb.wtf



Скачать Видеть через торрент https://i3.imageban.ru/out/2019/11/08/52feae166011f37801293309f326870f.png Скачать фильм Видеть через торрент бесплантно в хорошем качестве Описание:В далёком будущем человеческая раса полностью лишилась зрения. Чтобы выжить, людям пришлось найти новый способ сосуществовать, ... 10 10 10
Торрент: Зарегистрирован [2019-12-10 20:10] · скачан: 86 раз
Статус: √ проверено
Размер: 11.4 GB
Как cкачать? Как скачать Видеть через торрент | qTorrent

% Раздел Тема Автор DL S | L
Зарубежные сериалы [ 37.22 GB ] Видеть / See / Сезон: 1 / Серии: 1-8 из 8 [2019 WEB-DL 1080p] MVO [Lostfilm] +DVO [Кубик в Кубе] bober100 Скачать
3 | 1
Зарубежные сериалы [ 28.25 GB ] Видеть / See / Сезон: 1 / Серии: 1-8 из 8 [2019 WEBRip 1080p] DVO [Gears Media] bober100 Скачать
1 | 0
Зарубежные сериалы [ 10.23 GB ] Видеть / See / Сезон: 1 / Серии: 1-8 из 8 [2019 WEBRip 720p] DVO [Gears Media] bober100 Скачать
2 | 0
Зарубежные сериалы [ 5.06 GB ] Видеть / See / Сезон: 1 / Серии: 1-8 из 8 [2019 WEBRip] [MVO] killermax2013 Скачать
2 | 0
Зарубежные сериалы [ 18.54 GB ] Видеть / See / Сезон: 1 / Серии: 1-8 из 8 [2019 WEBRip 1080p] [MVO] killermax2013 Скачать
1 | 0
Зарубежные сериалы [ 13.19 GB ] Видеть / See / Сезон: 1 / Серии: 1-8 из 8 [2019 WEB-DL 720p] [DVO] killermax2013 Скачать
2 | 0
Зарубежные сериалы [ 32.49 GB ] Видеть / See / Сезон: 1 / Серии: 1-8 из 8 [2019 WEB-DL 1080p] MVO [Lostfilm] bober100 Скачать
1 | 0

28-11-2019 20:33  

Отключить всю рекламу на сайте

    Дорогой пользователь! Огромная просьба, поблагодарите релизера, оцените раздачу и оставьте свои комментарий, если Вы скачали Видеть через торрент бесплатно! Внесите свою лепту в развитие PiratBit!
    Комментировать посты могут только пользователи прошедшие не сложную регистрацию
    Показать сообщения:    

    Видеть через торрент
    Скачать бесплатно Видеть
    Видеть скачать торрент
    Видеть смотреть онлайн
    Cкачать фильм Видеть бесплатно
    Видеть скачать торрент в хорошем качестве
    Видеть смотреть онлайн бесплатно в хорошем качестве


    Вы не можете начинать темы
    Вы не можете отвечать на сообщения
    Вы не можете редактировать свои сообщения
    Вы не можете удалять свои сообщения
    Вы не можете голосовать в опросах
    Вы не можете прикреплять файлы к сообщениям
    Вы можете скачивать файлы