новый адрес
Ссылка на приватное зеркало всего за 1$. Внимание количество ограничено!!!

iTunes

1+1

iTunes

мы

WEB-DL

1

iTunes

Чернобыль

iTunes

Ральф против интернета

Лицензия

ПШазам

Лицензия

Оно 2

Лицензия

30
pack

Вам бонус

ВАЖНО

!!Акция!!

Alien_RageХит недели

RePack

Resident Evil 21

ИГРА 18+

pack

RePack

jed

!!Акция!!

Alien_Rage

RePack

fifa19

RePack

Assassins Creed: Odyssey

RePack

NEED FOR SPEED™ PAYBACK

3 сезон

9 сезон

Бесстыжие 9 сезон

Все сериалы

все сериалы на PB.wtf

RePack

FAR CRY 5
Ребята, катастрофически не хватает 1900р. для оплаты серверов за Октябрь (всвязи с блокировками трафик упал в 3 раза), 1-2р., выручайте.
  

Кокаиновый барон / Running with the Devil (Джейсон Кэбелл) [2019, Триллер, драма, криминал, WEB-DLRip-AVC, Локализованная версия] DUB [iTunes] - ExKinoRay pb.wtf

Кокаиновый барон через торрент pb.wtf

Раздают: 102 [ 393 KB/s ] Качают: 2 [ 409 KB/s ]
Размер: 1.36 GB | Добавлен: 1 мес. 7 д. назад | Торрент скачан:441 раз
Скачать  

05-11-2019 01:51 Кокаиновый барон Скачать торрент  

Название: Кокаиновый барон
Оригинальное название: Running with the Devil
Год выпуска: 2019
Жанр: Триллер, драма, криминал
Режиссер: Джейсон Кэбелл
В ролях: Николас Кейдж, Лоуренс Фишборн, Бэрри Пеппер, Коул Хаузер, Лесли Бибб, Питер Фачинелли, Клифтон Коллинз мл., Адам Голдберг, Наталия Рейес, Тейт Флетчер

Описание: Груз кокаина следует из Мексики через США в Канаду. Когда партия не достигает цели, лидер картеля Босс посылает своих верных помощников - Повара и Мужика - разобраться, как работает сеть поставщиков.

rating

Страна: Колумбия, США
Студия: Jaguar Bite, Patriot Pictures
Продолжительность: 01:32:10
Перевод: Дублированный | iTunes

Формат: MKV
Качество: WEB-DLRip-AVC
Видео: MPEG-4 AVC, 1024x430 (16:9), 24.000 fps, 1733 Kbps, 0.164 bit/pixel
Аудио : 48 kHz, AC3, 5.1, 384 Kbps | iTunes | RUS |
Субтитры: Русские (hardsub)
General
Unique ID : 250959769470608384243202012776040053928 (0xBCCD17EEB2C07503AAFDF7D30FE13CA8)
Complete name : D:\Running.with.the.Devil.2019.WEB-DL.AVC.ExKinoRay.mkv
Format : Matroska
Format version : Version 2
File size : 1.36 GiB
Duration : 1 h 32 min
Overall bit rate : 2 112 kb/s
Movie name : Running with the Devil 2019 from ExKinoRay
Encoded date : UTC 2019-11-05 00:43:50
Writing application : mkvmerge v5.6.0 ('Kenya Kane') built on May 27 2012 16:44:04
Writing library : libebml v1.2.3 + libmatroska v1.3.0

Video
ID : 1
Format : AVC
Format/Info : Advanced Video Codec
Format profile : High@L4.1
Format settings, CABAC : Yes
Format settings, ReFrames : 11 frames
Codec ID : V_MPEG4/ISO/AVC
Duration : 1 h 32 min
Bit rate : 1 733 kb/s
Width : 1 024 pixels
Height : 430 pixels
Display aspect ratio : 2.40:1
Frame rate mode : Constant
Frame rate : 24.000 FPS
Color space : YUV
Chroma subsampling : 4:2:0
Bit depth : 8 bits
Scan type : Progressive
Bits/(Pixel*Frame) : 0.164
Stream size : 1.09 GiB (80%)
Title : Enigma
Writing library : x264 core 152 r2851 ba24899
Encoding settings : cabac=1 / ref=11 / deblock=1:-2:-2 / analyse=0x3:0x113 / me=umh / subme=10 / psy=1 / psy_rd=1.05:0.10 / mixed_ref=1 / me_range=32 / chroma_me=1 / trellis=2 / 8x8dct=1 / cqm=0 / deadzone=21,11 / fast_pskip=0 / chroma_qp_offset=-3 / threads=12 / lookahead_threads=3 / sliced_threads=0 / nr=0 / decimate=0 / interlaced=0 / bluray_compat=0 / constrained_intra=0 / bframes=10 / b_pyramid=2 / b_adapt=2 / b_bias=0 / direct=3 / weightb=1 / open_gop=0 / weightp=2 / keyint=240 / keyint_min=24 / scenecut=40 / intra_refresh=0 / rc=2pass / mbtree=0 / bitrate=1733 / ratetol=1.0 / qcomp=0.60 / qpmin=0 / qpmax=51 / qpstep=4 / cplxblur=20.0 / qblur=0.5 / ip_ratio=1.40 / pb_ratio=1.30 / aq=1:1.00
Language : English
Default : Yes
Forced : No
Color range : Limited
Color primaries : BT.709
Transfer characteristics : BT.709
Matrix coefficients : BT.709

Audio
ID : 2
Format : AC-3
Format/Info : Audio Coding 3
Mode extension : CM (complete main)
Format settings, Endianness : Big
Codec ID : A_AC3
Duration : 1 h 32 min
Bit rate mode : Constant
Bit rate : 384 kb/s
Channel(s) : 6 channels
Channel positions : Front: L C R, Side: L R, LFE
Sampling rate : 48.0 kHz
Frame rate : 31.250 FPS (1536 spf)
Compression mode : Lossy
Stream size : 253 MiB (18%)
Title : iTunes
Language : Russian
Default : Yes
Forced : Yes

Menu
00:00:00.000 : en:Глава 1
00:02:11.166 : en:Глава 2
00:07:19.041 : en:Глава 3
00:15:46.749 : en:Глава 4
00:20:53.457 : en:Глава 5
00:27:23.165 : en:Глава 6
00:37:20.623 : en:Глава 7
00:44:46.873 : en:Глава 8
00:54:06.206 : en:Глава 9
01:02:02.622 : en:Глава 10
01:10:27.747 : en:Глава 11
01:18:08.163 : en:Глава 12
01:24:12.996 : en:Глава 13


Релиз от:

Автор релиза: pb.wtf



Скачать Кокаиновый барон через торрент https://c.radikal.ru/c01/1911/b6/2eb488e8c7d6.png Скачать фильм Кокаиновый барон через торрент бесплантно в хорошем качестве Описание: Груз кокаина следует из Мексики через США в Канаду. Когда партия не достигает цели, лидер картеля Босс посылает своих верных ... 9.4 10 14
Info! Золотая раздача, скачанное не засчитывается.
Торрент: Зарегистрирован [2019-11-05 01:51] · скачан: 441 раз
Статус: √ проверено
Размер: 1.36 GB
Как cкачать? Как скачать Кокаиновый барон через торрент | qTorrent

28-11-2019 20:33  

Отключить всю рекламу на сайте

06-11-2019 09:23 Кокаиновый барон Скачать торрент  

слабоватоpb.wtf



    Дорогой пользователь! Огромная просьба, поблагодарите релизера, оцените раздачу и оставьте свои комментарий, если Вы скачали Кокаиновый барон через торрент бесплатно! Внесите свою лепту в развитие PiratBit!
    Комментировать посты могут только пользователи прошедшие не сложную регистрацию
    Показать сообщения:    

    Кокаиновый барон через торрент
    Скачать бесплатно Кокаиновый барон
    Кокаиновый барон скачать торрент
    Кокаиновый барон смотреть онлайн
    Cкачать фильм Кокаиновый барон бесплатно
    Кокаиновый барон скачать торрент в хорошем качестве
    Кокаиновый барон смотреть онлайн бесплатно в хорошем качестве


    Вы не можете начинать темы
    Вы не можете отвечать на сообщения
    Вы не можете редактировать свои сообщения
    Вы не можете удалять свои сообщения
    Вы не можете голосовать в опросах
    Вы не можете прикреплять файлы к сообщениям
    Вы можете скачивать файлы