новый адрес
Ссылка на приватное зеркало всего за 1$. Внимание количество ограничено!!!

iTunes

1+1

iTunes

мы

WEB-DL

1

iTunes

Чернобыль

iTunes

Ральф против интернета

Лицензия

ПШазам

Лицензия

Оно 2

Лицензия

30
pack

Вам бонус

ВАЖНО

!!Акция!!

Alien_RageХит недели

RePack

Resident Evil 21

ИГРА 18+

pack

RePack

jed

!!Акция!!

Alien_Rage

RePack

fifa19

RePack

Assassins Creed: Odyssey

RePack

NEED FOR SPEED™ PAYBACK

3 сезон

9 сезон

Бесстыжие 9 сезон

Все сериалы

все сериалы на PB.wtf

RePack

FAR CRY 5
Ребята, катастрофически не хватает 1900р. для оплаты серверов за Октябрь (всвязи с блокировками трафик упал в 3 раза), 1-2р., выручайте.
  

Невероятный мир глазами Энцо / The Art of Racing in the Rain (Саймон Кёртис) [2019, Драма, комедия, мелодрама, спорт, BDRip-AVC] DUB [iTunes] - OllanDGroup pb.wtf

Невероятный мир глазами Энцо через торрент pb.wtf

Раздают: 5 [ 4 KB/s ]
Размер: 745 MB | Добавлен: 1 мес. 1 д. назад | Торрент скачан:56 раз
Скачать  

05-11-2019 04:00 Невероятный мир глазами Энцо Скачать торрент  

Невероятный мир глазами Энцо / The Art of Racing in the Rain Год выпуска: 2019
Страна: США Невероятный мир глазами Энцо через торрент piratbit.pw
Студия: Fox 2000 Pictures, Original Film, Shifting Gears Productions
Жанр: Драма, комедия, мелодрама, спорт
Продолжительность: 01:48:49

Перевод: Дублированный | iTunes
Субтитры: Русские (Forced, full), английские

Режиссер: Саймон Кёртис


rating

В ролях: Кевин Костнер, Майло Вентимилья, Аманда Сайфред, Мартин Донован, Гэри Коул, Кэти Бэйкер, Ал Сапиенца, Лили Додсворт-Эванс, Райан Кира Армстронг, Андрес Джозеф, Карен Холнесс

Описание: Для собаки по кличке Энцо жизнь - это гонка. Не важно, как ты ее проходишь - за рулем автомобиля или на четырех лапах, все равно тебя ждут крутые виражи, ямы-западни, опасные взлеты и падения. Они выбивают с трека даже самых сильных - это начинающий гонщик Дэнни и его пес Энцо знают наверняка. Каждому из них предстоит своя гонка, но оба понимают: победить не значит обогнать соперников. Победить - значит вернуться после поражения на трассу и пройти ее до самого финиша, какой бы скользкой ни была дорога.

Качество: BDRip-AVC
Формат: MKV

Видео: 720x390 (1.85:1), 23.976 fps, х264 ~893 kbps avg, 0.133 bit/pixel
Аудио: 48 kHz, HE-AAC, 2 ch, ~64 kbps avg | RUS
General
Unique ID : 178927989567500121208548603938367527096 (0x869C46FD1D0E7EE061B14831DBA6D8B8)
Complete name : D:\OlLanDGroup\iTunes\The.Art.of.Racing.in.the.Rain.2019.BDRip(AVC).745Mb.OlLanDGroup.mkv
Format : Matroska
Format version : Version 4
File size : 745 MiB
Duration : 1 h 48 min
Overall bit rate : 957 kb/s
Movie name : The.Art.of.Racing.in.the.Rain.2019.BDRip(AVC).745Mb.OlLanDGroup#Skandar#
Encoded date : UTC 2019-11-05 03:11:44
Writing application : mkvmerge v31.0.0 ('Dolores In A Shoestand') 64-bit
Writing library : libebml v1.3.6 + libmatroska v1.4.9

Video
ID : 1
Format : AVC
Format/Info : Advanced Video Codec
Format profile : High@L4.1
Format settings : CABAC / 10 Ref Frames
Format settings, CABAC : Yes
Format settings, ReFrames : 10 frames
Codec ID : V_MPEG4/ISO/AVC
Duration : 1 h 48 min
Bit rate : 893 kb/s
Width : 720 pixels
Height : 390 pixels
Display aspect ratio : 1.85:1
Frame rate mode : Constant
Frame rate : 23.976 (24000/1001) FPS
Color space : YUV
Chroma subsampling : 4:2:0
Bit depth : 8 bits
Scan type : Progressive
Bits/(Pixel*Frame) : 0.133
Stream size : 693 MiB (93%)
Title : The.Art.of.Racing.in.the.Rain.2019.BDRip(AVC).745Mb.OlLanDGroup#Skandar#
Writing library : x264 core 146 r2538 121396c
Encoding settings : cabac=1 / ref=10 / deblock=1:-3:-3 / analyse=0x3:0x133 / me=umh / subme=11 / psy=1 / psy_rd=0.97:0.05 / mixed_ref=1 / me_range=48 / chroma_me=1 / trellis=2 / 8x8dct=1 / cqm=0 / deadzone=21,11 / fast_pskip=0 / chroma_qp_offset=-3 / threads=6 / lookahead_threads=1 / sliced_threads=0 / nr=0 / decimate=0 / interlaced=0 / bluray_compat=0 / constrained_intra=0 / bframes=11 / b_pyramid=2 / b_adapt=2 / b_bias=0 / direct=3 / weightb=1 / open_gop=0 / weightp=2 / keyint=240 / keyint_min=23 / scenecut=40 / intra_refresh=0 / rc_lookahead=40 / rc=2pass / mbtree=0 / bitrate=893 / ratetol=1.0 / qcomp=0.60 / qpmin=0 / qpmax=69 / qpstep=4 / cplxblur=20.0 / qblur=0.5 / vbv_maxrate=50000 / vbv_bufsize=62500 / nal_hrd=none / filler=0 / ip_ratio=1.40 / pb_ratio=1.30 / aq=1:1.00
Language : Russian
Default : Yes
Forced : No

Audio
ID : 2
Format : AAC LC SBR
Format/Info : Advanced Audio Codec Low Complexity with Spectral Band Replication
Commercial name : HE-AAC
Format settings : Explicit
Codec ID : A_AAC-2
Duration : 1 h 48 min
Bit rate : 64.0 kb/s
Channel(s) : 2 channels
Channel layout : L R
Sampling rate : 48.0 kHz
Frame rate : 23.438 FPS (2048 SPF)
Compression mode : Lossy
Delay relative to video : 31 ms
Stream size : 49.8 MiB (7%)
Title : DUB (iTunes)
Language : Russian
Default : Yes
Forced : No

Text #1
ID : 3
Format : UTF-8
Codec ID : S_TEXT/UTF8
Codec ID/Info : UTF-8 Plain Text
Duration : 1 h 44 min
Bit rate : 0 b/s
Count of elements : 6
Stream size : 289 Bytes (0%)
Title : Forced
Language : Russian
Default : Yes
Forced : Yes

Text #2
ID : 4
Format : UTF-8
Codec ID : S_TEXT/UTF8
Codec ID/Info : UTF-8 Plain Text
Duration : 1 h 48 min
Bit rate : 96 b/s
Count of elements : 1402
Stream size : 76.5 KiB (0%)
Title : Full
Language : Russian
Default : No
Forced : No

Text #3
ID : 5
Format : UTF-8
Codec ID : S_TEXT/UTF8
Codec ID/Info : UTF-8 Plain Text
Duration : 1 h 48 min
Bit rate : 64 b/s
Count of elements : 1682
Stream size : 51.3 KiB (0%)
Title : Full
Language : English
Default : No
Forced : No

Text #4
ID : 6
Format : UTF-8
Codec ID : S_TEXT/UTF8
Codec ID/Info : UTF-8 Plain Text
Duration : 1 h 48 min
Bit rate : 71 b/s
Count of elements : 1921
Stream size : 56.8 KiB (0%)
Title : SDH
Language : English
Default : No
Forced : No

Menu
00:00:00.000 : en:Chapter 01
00:04:51.583 : en:Chapter 02
00:10:34.884 : en:Chapter 03
00:13:59.589 : en:Chapter 04
00:17:26.712 : en:Chapter 05
00:20:54.920 : en:Chapter 06
00:26:08.734 : en:Chapter 07
00:31:05.530 : en:Chapter 08
00:36:22.680 : en:Chapter 09
00:39:37.417 : en:Chapter 10
00:43:47.291 : en:Chapter 11
00:48:57.143 : en:Chapter 12
00:54:02.739 : en:Chapter 13
00:59:17.429 : en:Chapter 14
01:03:59.127 : en:Chapter 15
01:07:27.502 : en:Chapter 16
01:10:49.078 : en:Chapter 17
01:14:47.858 : en:Chapter 18
01:18:46.513 : en:Chapter 19
01:25:06.852 : en:Chapter 20
01:28:34.601 : en:Chapter 21
01:32:43.767 : en:Chapter 22
01:36:29.951 : en:Chapter 23
01:41:27.540 : en:Chapter 24
Релиз от:
pb.wtf



Скачать Невероятный мир глазами Энцо через торрент https://d.radikal.ru/d06/1910/19/64849450f93d.png Скачать фильм Невероятный мир глазами Энцо через торрент бесплантно в хорошем качестве Описание: Для собаки по кличке Энцо жизнь - это гонка. Не важно, как ты ее проходишь - за рулем автомобиля или на четырех лапах, все равно ... 10 10 4
Торрент: Зарегистрирован [2019-11-05 04:00] · скачан: 56 раз
Статус: √ проверено
Размер: 745 MB
Как cкачать? Как скачать Невероятный мир глазами Энцо через торрент | qTorrent

28-11-2019 20:33  

Отключить всю рекламу на сайте

    Дорогой пользователь! Огромная просьба, поблагодарите релизера, оцените раздачу и оставьте свои комментарий, если Вы скачали Невероятный мир глазами Энцо через торрент бесплатно! Внесите свою лепту в развитие PiratBit!
    Комментировать посты могут только пользователи прошедшие не сложную регистрацию
    Показать сообщения:    

    Невероятный мир глазами Энцо через торрент
    Скачать бесплатно Невероятный мир глазами Энцо
    Невероятный мир глазами Энцо скачать торрент
    Невероятный мир глазами Энцо смотреть онлайн
    Cкачать фильм Невероятный мир глазами Энцо бесплатно
    Невероятный мир глазами Энцо скачать торрент в хорошем качестве
    Невероятный мир глазами Энцо смотреть онлайн бесплатно в хорошем качестве


    Вы не можете начинать темы
    Вы не можете отвечать на сообщения
    Вы не можете редактировать свои сообщения
    Вы не можете удалять свои сообщения
    Вы не можете голосовать в опросах
    Вы не можете прикреплять файлы к сообщениям
    Вы можете скачивать файлы