Ссылка на приватное зеркало всего за 1$. Внимание количество ограничено!!!

iTunes

1+1

iTunes

мы

WEB-DL

1

iTunes

Чернобыль

iTunes

Ральф против интернета

Лицензия

ПШазам

Лицензия

Оно 2

Лицензия

30
pack

Вам бонус

ВАЖНО

!!Акция!!

Alien_RageХит недели

RePack

Resident Evil 21

ИГРА 18+

pack

RePack

jed

!!Акция!!

Alien_Rage

RePack

fifa19

RePack

Assassins Creed: Odyssey

RePack

NEED FOR SPEED™ PAYBACK

3 сезон

9 сезон

Бесстыжие 9 сезон

Все сериалы

все сериалы на PB.wtf

RePack

FAR CRY 5
Ребята, катастрофически не хватает 1900р. для оплаты серверов за Октябрь (всвязи с блокировками трафик упал в 3 раза), 1-2р., выручайте.
  

Волшебник (Михаил Морсков) [2019, комедия, драма, WEB-DLRip-AVC] [iTunes] - OllanDGroup pb.wtf

Волшебник через торрент pb.wtf

Раздают: 3 [ 0 KB/s ]
Размер: 746 MB | Добавлен: 1 мес. 8 д. назад | Торрент скачан:59 раз
Скачать  

05-11-2019 04:05 Волшебник Скачать торрент  

Волшебник Год выпуска: 2019
Страна: Россия
Жанр: комедия, драма
Продолжительность: 01:22:57

Перевод: Не требуется | iTunes
Субтитры: отсутствуют

Режиссер: Михаил Морсков




В ролях: Семён Трескунов, Максим Суханов, Ангелина Стречина, Ирина Купченко, Владимир Капустин, Ирина Яковлева, Иван Охлобыстин, Сергей Чонишвили, Сергей Аброскин, Екатерина Маликова

Описание: В прошлом популярный рок-музыкант Фима влачит жалкое существование, растратив свой талант и предаваясь разгульному образу жизни. Все меняется, когда уроки на гитаре у него начинает брать мальчик Рома, страдающий ДЦП и отчаянно жаждущий завоевать сердце своей одноклассницы Маши.

Качество: WEB-DLRip-AVC
Формат: MKV

Видео: 720x268 (2.687), 25 fps, х264 ~1 184 kbps avg, 0.245 bit/pixel
Аудио: 48 kHz, HE-AAC, 2 ch, ~72 kbps avg | RUS
General
Unique ID: 323252599150397123394284473581046947174 (0xF3302F9FB177CE4DEDE9441EEE115D66)
Complete name: D:\OlLanDGroup\Volshebnik.2019.WEB-DLRip(AVC).OllanDGroup.mkv
Format: Matroska
Format version: Version 4
File size: 746 MiB
Duration: 1 h 22 min
Overall bit rate: 1 258 kb/s
Movie name: Volshebnik.2019 #Skandar#
Encoded date: UTC 2019-11-05 01:04:06
Writing application: mkvmerge v29.0.0 ('Like It Or Not') 64-bit
Writing library: libebml v1.3.6 + libmatroska v1.4.9

Video
ID: 1
Format: AVC
Format/Info: Advanced Video Codec
Format profile: High@L4.1
Format settings: CABAC / 10 Ref Frames
Format settings, CABAC: Yes
Format settings, ReFrames: 10 frames
Codec ID: V_MPEG4/ISO/AVC
Duration: 1 h 22 min
Bit rate: 1 184 kb/s
Width: 720 pixels
Height: 268 pixels
Display aspect ratio: 2.687
Frame rate mode: Constant
Frame rate: 25.000 FPS
Color space: YUV
Chroma subsampling: 4:2:0
Bit depth: 8 bits
Scan type: Progressive
Bits/(Pixel*Frame): 0.245
Stream size: 703 MiB (94%)
Writing library: x264 core 146 r2538 121396c
Encoding settings: cabac=1 / ref=10 / deblock=1:-2:-3 / analyse=0x3:0x113 / me=umh / subme=10 / psy=1 / psy_rd=0.95:0.07 / mixed_ref=1 / me_range=48 / chroma_me=1 / trellis=2 / 8x8dct=1 / cqm=0 / deadzone=21,11 / fast_pskip=1 / chroma_qp_offset=-6 / threads=6 / lookahead_threads=1 / sliced_threads=0 / nr=0 / decimate=1 / interlaced=0 / bluray_compat=0 / constrained_intra=0 / bframes=11 / b_pyramid=2 / b_adapt=2 / b_bias=0 / direct=3 / weightb=1 / open_gop=0 / weightp=2 / keyint=250 / keyint_min=25 / scenecut=40 / intra_refresh=0 / rc_lookahead=40 / rc=2pass / mbtree=0 / bitrate=1184 / ratetol=1.0 / qcomp=0.60 / qpmin=0 / qpmax=69 / qpstep=4 / cplxblur=20.0 / qblur=0.5 / vbv_maxrate=50000 / vbv_bufsize=62500 / nal_hrd=none / filler=0 / ip_ratio=1.40 / pb_ratio=1.30 / aq=1:1.00
Default: Yes
Forced: No

Audio
ID: 2
Format: AAC LC SBR
Format/Info: Advanced Audio Codec Low Complexity with Spectral Band Replication
Commercial name: HE-AAC
Format settings: Explicit
Codec ID: A_AAC-2
Duration: 1 h 22 min
Bit rate: 72.0 kb/s
Channel(s): 2 channels
Channel layout: L R
Sampling rate: 48.0 kHz
Frame rate: 23.438 FPS (2048 SPF)
Compression mode: Lossy
Delay relative to video: 31 ms
Stream size: 42.7 MiB (6%)
Title: [Original]
Language: Russian
Default: Yes
Forced: No

Menu
00:00:00.000: en:Глава 1
00:05:54.520: en:Глава 2
00:12:21.520: en:Глава 3
00:19:00.240: en:Глава 4
00:25:45.240: en:Глава 5
00:32:11.920: en:Глава 6
00:39:21.040: en:Глава 7
00:45:06.840: en:Глава 8
00:50:26.160: en:Глава 9
00:57:45.320: en:Глава 10
01:03:56.880: en:Глава 11
01:11:00.760: en:Глава 12
Релиз от:
pb.wtf



Скачать Волшебник через торрент https://i4.imageban.ru/out/2019/11/03/7f74c776b79d2b0217c7972924f62c0b.png Скачать фильм Волшебник через торрент бесплантно в хорошем качестве Описание: В прошлом популярный рок-музыкант Фима влачит жалкое существование, растратив свой талант и предаваясь разгульному образу жизни. ... 10 10 1
Торрент: Зарегистрирован [2019-11-05 04:05] · скачан: 59 раз
Статус: √ проверено
Размер: 746 MB
Как cкачать? Как скачать Волшебник через торрент | qTorrent

28-11-2019 20:33  

Отключить всю рекламу на сайте

    Дорогой пользователь! Огромная просьба, поблагодарите релизера, оцените раздачу и оставьте свои комментарий, если Вы скачали Волшебник через торрент бесплатно! Внесите свою лепту в развитие PiratBit!
    Комментировать посты могут только пользователи прошедшие не сложную регистрацию
    Показать сообщения:    

    Волшебник через торрент
    Скачать бесплатно Волшебник
    Волшебник скачать торрент
    Волшебник смотреть онлайн
    Cкачать фильм Волшебник бесплатно
    Волшебник скачать торрент в хорошем качестве
    Волшебник смотреть онлайн бесплатно в хорошем качестве


    Вы не можете начинать темы
    Вы не можете отвечать на сообщения
    Вы не можете редактировать свои сообщения
    Вы не можете удалять свои сообщения
    Вы не можете голосовать в опросах
    Вы не можете прикреплять файлы к сообщениям
    Вы можете скачивать файлы