Ссылка на приватное зеркало нашего сайта всего за 1$. Внимание количество ограничено!!!

2 сезон

iTunes

1 сезон

1

2 сезон

2 сезон

iTunes

1 сезон

RePack

30

Ultimate

ВАЖНО

ИГРА 18+

pack

RePack

MK11
pack

Забери бонус

RePack

jed

!!Акция!!

Alien_Rage

RePack

fifa19

RePack

Assassins Creed: Odyssey

RePack

NEED FOR SPEED™ PAYBACK

4 сезон

9 сезон

Бесстыжие 9 сезон

Все сериалы

все сериалы на PB.wtf

RePack

FAR CRY 5
  

Ты умеешь хранить секреты? / Can You Keep a Secret? (Элиз Дюран) [2019, Мелодрама, комедия, WEB-DL 1080p] DUB [iTunes] pb.wtf

Ты умеешь хранить секреты? через торрент pb.wtf

Раздают: 1 [ 0 KB/s ]
Размер: 6.31 GB | Добавлен: 1 год назад | Торрент скачан:172 раза
Скачать  

05-11-2019 16:27 Ты умеешь хранить секреты? Скачать торрент  

Ты умеешь хранить секреты? / Can You Keep a Secret?
Год выпуска: 2019
Страна: США
Жанр: Мелодрама, комедия
Продолжительность: 01:34:36
Перевод: Дублированный | iTunes
Субтитры: Русские (Full), английские (Full, SDH)

Режиссер: Элиз Дюран

rating

В ролях: Александра Даддарио, Тайлер Хэклин, Кимико Гленн, Лаверн Кокс, Сунита Мани, Джуда Фридландер, Сэм Асгари, Кейт Кастонгуэй, Эшлин Алесси, Бобби Тисдэйл

Описание: Эмма с треском провалила совещание и возвращается из командировки самолётом. Настроение - хуже некуда, вдобавок девушка боится летать, поэтому хорошенько принимает на грудь перед посадкой. Сочувствующая стюардесса предлагает ей свободное место в первом классе, где разносят шампанское, поэтому при первой же турбулентности от страха Эмма начинает вываливать все свои секреты сидящему рядом мужчине. Она рассказывает ему всё - от нюансов личной жизни до офисных взаимоотношений. И каково же было удивление девушки, когда на следующий день выяснилось, что тот самый сосед по самолёту - её босс и основатель компании - пришёл в их офис проверить работу отделения.

Качество: WEB-DL 1080p
Формат: MKV

Видео: MPEG-4 AVC, 1920x1080 (16:9), 8332 Kbps, 23.976 fps
Аудио#1: Russian: AC3, 6 ch, 48 kHz, 384 kbps - DUB, iTunes
Аудио#2: English: Е-AC3, 6 ch, 48 kHz, 640 kbps - Оригинал
скриншот  скриншот  скриншот  

скриншот  скриншот  скриншот  

General
Unique ID : 250260882808312828644509260444031619521 (0xBC467E28DB71ADACB1DEE84B15B991C1)
Complete name : CAN_YOU_KEEP_A_SECRET_2019_WEB-DL_1080p_AMAZON-BLUEBIRD.mkv
Format : Matroska
Format version : Version 4 / Version 2
File size : 6.31 GiB
Duration : 1 h 34 min
Overall bit rate : 9 546 kb/s
Encoded date : UTC 2019-11-04 19:35:35
Writing application : mkvmerge v6.9.1 ('Blue Panther') 32bit built on Apr 18 2014 18:15:44
Writing library : libebml v1.3.0 + libmatroska v1.4.1
Cover : Yes
Attachments : cover1.png

Video
ID : 1
Format : AVC
Format/Info : Advanced Video Codec
Format profile : High@L4
Format settings, CABAC : Yes
Format settings, RefFrames : 4 frames
Codec ID : V_MPEG4/ISO/AVC
Duration : 1 h 34 min
Bit rate mode : Constant
Bit rate : 8 332 kb/s
Nominal bit rate : 10 000 kb/s
Width : 1 920 pixels
Height : 1 080 pixels
Display aspect ratio : 16:9
Frame rate mode : Constant
Frame rate : 23.976 (24000/1001) FPS
Color space : YUV
Chroma subsampling : 4:2:0
Bit depth : 8 bits
Scan type : Progressive
Bits/(Pixel*Frame) : 0.168
Stream size : 5.51 GiB (87%)
Default : Yes
Forced : No
Color range : Limited
Color primaries : BT.709
Transfer characteristics : BT.709
Matrix coefficients : BT.709

Audio #1
ID : 2
Format : AC-3
Format/Info : Audio Coding 3
Format settings, Endianness : Big
Codec ID : A_AC3
Duration : 1 h 34 min
Bit rate mode : Constant
Bit rate : 384 kb/s
Channel(s) : 6 channels
Channel positions : Front: L C R, Side: L R, LFE
Sampling rate : 48.0 kHz
Frame rate : 31.250 FPS (1536 SPF)
Bit depth : 16 bits
Compression mode : Lossy
Stream size : 260 MiB (4%)
Title : [DUB] DD 5.1 @ 384 kbps (iTunes)
Language : Russian
Service kind : Complete Main
Default : Yes
Forced : No

Audio #2
ID : 3
Format : E-AC-3
Format/Info : Enhanced Audio Coding 3
Format settings, Endianness : Big
Codec ID : A_EAC3
Duration : 1 h 34 min
Bit rate mode : Constant
Bit rate : 640 kb/s
Channel(s) : 6 channels
Channel positions : Front: L C R, Side: L R, LFE
Sampling rate : 48.0 kHz
Frame rate : 187.500 FPS (256 SPF)
Compression mode : Lossy
Stream size : 433 MiB (7%)
Title : [ORIGINAL] DD+ 5.1 @ 640 kbps (Amazon)
Language : English
Service kind : Complete Main
Default : No
Forced : No

Text #1
ID : 4
Format : UTF-8
Codec ID : S_TEXT/UTF8
Codec ID/Info : UTF-8 Plain Text
Title : Full-length
Language : Russian
Default : No
Forced : No

Text #2
ID : 5
Format : UTF-8
Codec ID : S_TEXT/UTF8
Codec ID/Info : UTF-8 Plain Text
Title : Full-length
Language : English
Default : No
Forced : No

Text #3
ID : 6
Format : UTF-8
Codec ID : S_TEXT/UTF8
Codec ID/Info : UTF-8 Plain Text
Title : SDH
Language : English
Default : No
Forced : No

pb.wtf



Скачать Ты умеешь хранить секреты? через торрент https://i3.imageban.ru/out/2019/11/05/4c45ea7b32081f7097df879c2c610bb9.jpg Скачать фильм Ты умеешь хранить секреты? через торрент бесплантно в хорошем качестве Описание: Эмма с треском провалила совещание и возвращается из командировки самолётом. Настроение - хуже некуда, вдобавок девушка боится ... 10 10 4
Торрент: Зарегистрирован [2019-11-05 16:27] · скачан: 172 раз
Статус: √ проверено
Размер: 6.31 GB
Как cкачать? Как скачать Ты умеешь хранить секреты? через торрент | qTorrent

28-11-2019 20:33  

Отключить всю рекламу на сайте

    Дорогой пользователь! Огромная просьба, поблагодарите релизера, оцените раздачу и оставьте свои комментарий, если Вы скачали Ты умеешь хранить секреты? через торрент бесплатно! Внесите свою лепту в развитие PiratBit!
    Комментировать посты могут только пользователи прошедшие не сложную регистрацию
    Показать сообщения:    

    Ты умеешь хранить секреты? через торрент
    Скачать бесплатно Ты умеешь хранить секреты?
    Ты умеешь хранить секреты? скачать торрент
    Ты умеешь хранить секреты? смотреть онлайн
    Cкачать фильм Ты умеешь хранить секреты? бесплатно
    Ты умеешь хранить секреты? скачать торрент в хорошем качестве
    Ты умеешь хранить секреты? смотреть онлайн бесплатно в хорошем качестве


    Вы не можете начинать темы
    Вы не можете отвечать на сообщения
    Вы не можете редактировать свои сообщения
    Вы не можете удалять свои сообщения
    Вы не можете голосовать в опросах
    Вы не можете прикреплять файлы к сообщениям
    Вы можете скачивать файлы