новый адрес
Ссылка на приватное зеркало всего за 1$. Внимание количество ограничено!!!

iTunes

1+1

iTunes

мы

WEB-DL

1

iTunes

Чернобыль

iTunes

Ральф против интернета

Лицензия

ПШазам

Лицензия

Оно 2

Лицензия

30
pack

Вам бонус

ВАЖНО

!!Акция!!

Alien_RageХит недели

RePack

Resident Evil 21

ИГРА 18+

pack

RePack

jed

!!Акция!!

Alien_Rage

RePack

fifa19

RePack

Assassins Creed: Odyssey

RePack

NEED FOR SPEED™ PAYBACK

3 сезон

9 сезон

Бесстыжие 9 сезон

Все сериалы

все сериалы на PB.wtf

RePack

FAR CRY 5
Ребята, катастрофически не хватает 1900р. для оплаты серверов за Октябрь (всвязи с блокировками трафик упал в 3 раза), 1-2р., выручайте.
  

Невероятный мир глазами Энцо / The Art of Racing in the Rain (Саймон Кёртис) [2019 г., драма, мелодрама, комедия, спорт, HDRip, Дубляж "iTunes"] pb.wtf

Невероятный мир глазами Энцо через торрент pb.wtf

Размер: 706 MB | Добавлен: 1 мес. 3 д. назад | Торрент скачан:43 раза
Скачать  

05-11-2019 18:22 Невероятный мир глазами Энцо Скачать торрент  

Невероятный мир глазами Энцо / The Art of Racing in the Rain
Год выпуска: 2019
Страна: США / Fox 2000 Pictures, Original Film, Shifting Gears Productions
Жанр: драма, мелодрама, комедия, спорт
Продолжительность: 01:48:49
Перевод: Дубляж (iTunes)
Субтитры: русские форсированные-вшитые

Режиссер: Саймон Кёртис

rating

В ролях: Майло Вентимилья, Кевин Костнер, Аманда Сайфред, Гэри Коул, Кэти Бейкер, Мартин Донован, Lily Dodsworth-Evans, Райан Кира Армстронг, Карен Холнесс, Ал Сапиенца

Описание: Для собаки по кличке Энцо жизнь - это гонка. Не важно, как ты ее проходишь - за рулем автомобиля или на четырех лапах, все равно тебя ждут крутые виражи, ямы-западни, опасные взлеты и падения. Они выбивают с трека даже самых сильных - это начинающий гонщик Дэнни и его пес Энцо знают наверняка. Каждому из них предстоит своя гонка, но оба понимают: победить не значит обогнать соперников. Победить - значит вернуться после поражения на трассу и пройти ее до самого финиша, какой бы скользкой ни была дорога.

Качество: HDRip
Формат: AVI
Видео кодек: DivX
Аудио кодек: MP3
Видео: 640x344 (1.86:1), 23.976 fps, DivX Codec 4.x ~769 kbps avg, 0.14 bit/pixel
Аудио: 48 kHz, MPEG Layer 3, 2 ch, ~128.00 kbps avg
скриншот   скриншот   скриншот   скриншот  

Общее
Полное имя : F:\ФИЛЬМЫ\Невероятный мир глазами Энцо.2019.D.HDRip.avi
Формат : AVI
Формат/Информация : Audio Video Interleave
Размер файла : 706 Мбайт
Продолжительность : 1 ч. 48 м.
Общий поток : 907 Кбит/сек
Название фильма : Невероятный мир глазами Энцо.2019.D.HDRip.avi
Программа кодирования : VirtualDubMod 1.5.10.3 | www.virtualdub-fr.org || (build 2550/release)

Видео
Идентификатор : 0
Формат : MPEG-4 Visual
Профиль формата : Advanced Simple@L5
Настройки формата : BVOP3 / GMC3 / QPel
Параметр BVOP формата : 3
Параметр QPel формата : Да
Параметр GMC формата : 3 точки перехода
Параметр матрицы формата : Default (MPEG)
Идентификатор кодека : DIVX
Идентификатор кодека/Информация : Project Mayo
Идентификатор кодека/Подсказка : DivX 4
Продолжительность : 1 ч. 48 м.
Битрейт : 770 Кбит/сек
Ширина : 640 пикселей
Высота : 344 пикселя
Соотношение сторон : 1,85:1
Частота кадров : 23,976 (24000/1001) кадра/сек
Цветовое пространство : YUV
Субдискретизация насыщенности : 4:2:0
Битовая глубина : 8 бит
Тип развёртки : Прогрессивная
Метод сжатия : С потерями
Бит/(Пиксели*Кадры) : 0.146
Размер потока : 599 Мбайт (85%)
Библиотека кодирования : XviD 1.2.1 (UTC 2008-12-04)

Аудио
Идентификатор : 1
Формат : MPEG Audio
Версия формата : Version 1
Профиль формата : Layer 3
Настройки формата : Joint stereo
Идентификатор кодека : 55
Идентификатор кодека/Подсказка : MP3
Продолжительность : 1 ч. 48 м.
Вид битрейта : Постоянный
Битрейт : 128 Кбит/сек
Каналы : 2 канала
Частота : 48,0 КГц
Частота кадров : 41,667 кадра/сек (1152 SPF)
Метод сжатия : С потерями
Размер потока : 99,6 Мбайт (14%)
Выравнивание : Соединение по промежуткам
Продолжительность промежутка : 42 мс. (1,00 видеокадр)
Время предзагрузки промежутка : 504 мс.
Библиотека кодирования : LAME3.99r
Настройки программы : -m j -V 4 -q 2 -lowpass 17 -b 128

pb.wtf



Скачать Невероятный мир глазами Энцо через торрент http://pic1.kartinco.top/images/12/hc9zf.jpg Скачать фильм Невероятный мир глазами Энцо через торрент бесплантно в хорошем качестве Описание: Для собаки по кличке Энцо жизнь - это гонка. Не важно, как ты ее проходишь - за рулем автомобиля или на четырех лапах, все равно ... 10 10 3
Торрент: Зарегистрирован [2019-11-05 18:22] · скачан: 43 раз
Статус: √ проверено
Размер: 706 MB
Как cкачать? Как скачать Невероятный мир глазами Энцо через торрент | qTorrent

% Раздел Тема Автор DL S | L
Фильмы 2019 [DVDrip, WEB-DLRip, HDrip] (DUB, MVO) [ 745 MB ] Невероятный мир глазами Энцо / The Art of Racing in the Rain [2019 BDRip-AVC] - OllanDGroup Skandar2019 Скачать
8 | 0
Фильмы 2019 [DVDrip, WEB-DLRip, HDrip] (DUB, MVO) [ 1.41 GB ] Невероятный мир глазами Энцо / The Art of Racing in the Rain [2019 BDRip] bober100 Скачать
15 | 0
Фильмы [HD 720p, 1080p] (Хороший звук DUB, MVO) [ 13.2 GB ] Невероятный мир глазами Энцо / The Art of Racing in the Rain [2019 BDRip 1080p] DUB bober100 Скачать
3 | 0
Фильмы (Blu-ray, BD-Remux, HDDVD) [ 26.77 GB ] Невероятный мир глазами Энцо / The Art of Racing in the Rain [2019 BD Remux 1080p] DUB bober100 Скачать
3 | 1
Фильмы [HD 720p, 1080p] (Хороший звук DUB, MVO) [ 6.11 GB ] Невероятный мир глазами Энцо / The Art of Racing in the Rain [2019 BDRip 720p] DUB bober100 Скачать
7 | 0

28-11-2019 20:33  

Отключить всю рекламу на сайте

    Дорогой пользователь! Огромная просьба, поблагодарите релизера, оцените раздачу и оставьте свои комментарий, если Вы скачали Невероятный мир глазами Энцо через торрент бесплатно! Внесите свою лепту в развитие PiratBit!
    Комментировать посты могут только пользователи прошедшие не сложную регистрацию
    Показать сообщения:    

    Невероятный мир глазами Энцо через торрент
    Скачать бесплатно Невероятный мир глазами Энцо
    Невероятный мир глазами Энцо скачать торрент
    Невероятный мир глазами Энцо смотреть онлайн
    Cкачать фильм Невероятный мир глазами Энцо бесплатно
    Невероятный мир глазами Энцо скачать торрент в хорошем качестве
    Невероятный мир глазами Энцо смотреть онлайн бесплатно в хорошем качестве


    Вы не можете начинать темы
    Вы не можете отвечать на сообщения
    Вы не можете редактировать свои сообщения
    Вы не можете удалять свои сообщения
    Вы не можете голосовать в опросах
    Вы не можете прикреплять файлы к сообщениям
    Вы можете скачивать файлы