Ссылка на приватное зеркало всего за 1$. Внимание количество ограничено!!!

iTunes

1+1

iTunes

мы

WEB-DL

1

iTunes

Чернобыль

iTunes

Ральф против интернета

Лицензия

ПШазам

Лицензия

Оно 2

Лицензия

30
pack

Вам бонус

ВАЖНО

!!Акция!!

Alien_RageХит недели

RePack

Resident Evil 21

ИГРА 18+

pack

RePack

jed

!!Акция!!

Alien_Rage

RePack

fifa19

RePack

Assassins Creed: Odyssey

RePack

NEED FOR SPEED™ PAYBACK

3 сезон

9 сезон

Бесстыжие 9 сезон

Все сериалы

все сериалы на PB.wtf

RePack

FAR CRY 5
Ребята, катастрофически не хватает 1900р. для оплаты серверов за Октябрь (всвязи с блокировками трафик упал в 3 раза), 1-2р., выручайте.
  

Вита и Вирджиния / Vita & Virginia (Чания Баттон) [2018 г., драма, мелодрама, биография, HDRip, Профессиональное (многоголосое) [iTunes]] pb.wtf

Вита и Вирджиния через торрент pb.wtf

Размер: 2.16 GB | Добавлен: 1 мес. 8 д. назад | Торрент скачан:11 раз
Скачать  

05-11-2019 18:22 Вита и Вирджиния Скачать торрент  

Вита и Вирджиния / Vita & Virginia Год выпуска: 2018
Страна: Ирландия, Великобритания / Mirror Productions, Blinder Films, Cutting Edge
Жанр: драма, мелодрама, биография
Продолжительность: 01:49:58
Перевод: Профессиональное (многоголосое) [iTunes]

Режиссер: Чания Баттон

rating

В ролях: Джемма Артертон, Элизабет Дебики, Изабелла Росселлини, Руперт Пенри-Джонс, Питер Фердинандо, Эмиральд Феннел, Гетин Энтони, Рори Флек-Бирн, Карла Кроум, Адам Джиллен

Описание: В эпоху разлагающейся морали, блистательного джаза и контрабандного алкоголя, светская львица Вита Сэквилл-Уэст знакомится с «королевой литературы» Вирджинией Вульф. Ярое противостояние перерастает во взаимную симпатию, а симпатия - в головокружительный роман, который потрясет высшее общество и навсегда изменит их жизни.

Качество: HDRip
Формат: AVI
Видео кодек: XviD
Аудио кодек: AC3
Видео: 2041 Kb/s, 720x384
Аудио#1: Russian: AC3, 384 Kb/s (6 ch)
Аудио#2: English: AC3, 384 Kb/s (6 ch)

СЕМПЛ
Формат : AVI
Формат/Информация : Audio Video Interleave
Профиль формата : OpenDML
Размер файла : 2,16 Гбайт
Продолжительность : 1 ч. 49 м.
Общий поток : 2816 Кбит/сек
Название фильма : B
Программа кодирования : V

Видео
Идентификатор : 0
Формат : MPEG-4 Visual
Профиль формата : Advanced Simple@L5
Настройки формата : BVOP2
Параметр BVOP формата : 2
Параметр QPel формата : Нет
Параметр GMC формата : Без точки перехода
Параметр матрицы формата : Default (MPEG)
Идентификатор кодека : XVID
Идентификатор кодека/Подсказка : XviD
Продолжительность : 1 ч. 49 м.
Битрейт : 2030 Кбит/сек
Ширина : 720 пикселей
Высота : 384 пикселя
Соотношение сторон : 1,85:1
Частота кадров : 24,000 кадра/сек
Цветовое пространство : YUV
Субдискретизация насыщенности : 4:2:0
Битовая глубина : 8 бит
Тип развёртки : Прогрессивная
Метод сжатия : С потерями
Бит/(Пиксели*Кадры) : 0.306
Размер потока : 1,56 Гбайт (72%)
Библиотека кодирования : XviD 1.2.1 (UTC 2008-12-04)

Аудио #1
Идентификатор : 1
Формат : AC-3
Формат/Информация : Audio Coding 3
Коммерческое название : Dolby Digital
Идентификатор кодека : 2000
Продолжительность : 1 ч. 49 м.
Вид битрейта : Постоянный
Битрейт : 384 Кбит/сек
Каналы : 6 каналов
ChannelLayout : L R C LFE Ls Rs
Частота : 48,0 КГц
Частота кадров : 31,250 кадров/сек (1536 SPF)
Метод сжатия : С потерями
Размер потока : 302 Мбайт (14%)
Выравнивание : Разделение по промежуткам
Продолжительность промежутка : 42 мс. (1,00 видеокадр)
Время предзагрузки промежутка : 500 мс.
ServiceKind/String : Complete Main

Аудио #2
Идентификатор : 2
Формат : AC-3
Формат/Информация : Audio Coding 3
Коммерческое название : Dolby Digital
Идентификатор кодека : 2000
Продолжительность : 1 ч. 49 м.
Вид битрейта : Постоянный
Битрейт : 384 Кбит/сек
Каналы : 6 каналов
ChannelLayout : L R C LFE Ls Rs
Частота : 48,0 КГц
Частота кадров : 31,250 кадров/сек (1536 SPF)
Метод сжатия : С потерями
Размер потока : 302 Мбайт (14%)
Выравнивание : Разделение по промежуткам
Продолжительность промежутка : 42 мс. (1,00 видеокадр)
Время предзагрузки промежутка : 500 мс.
ServiceKind/String : Complete Main

pb.wtf



Скачать Вита и Вирджиния через торрент http://pic1.kartinco.top/images/12/u2c9l.jpg Скачать фильм Вита и Вирджиния через торрент бесплантно в хорошем качестве Описание: В эпоху разлагающейся морали, блистательного джаза и контрабандного алкоголя, светская львица Вита Сэквилл-Уэст знакомится с ... 10 10 1
Торрент: Зарегистрирован [2019-11-05 18:22] · скачан: 11 раз
Статус: √ проверено
Размер: 2.16 GB
Как cкачать? Как скачать Вита и Вирджиния через торрент | qTorrent

28-11-2019 20:33  

Отключить всю рекламу на сайте

    Дорогой пользователь! Огромная просьба, поблагодарите релизера, оцените раздачу и оставьте свои комментарий, если Вы скачали Вита и Вирджиния через торрент бесплатно! Внесите свою лепту в развитие PiratBit!
    Комментировать посты могут только пользователи прошедшие не сложную регистрацию
    Показать сообщения:    

    Вита и Вирджиния через торрент
    Скачать бесплатно Вита и Вирджиния
    Вита и Вирджиния скачать торрент
    Вита и Вирджиния смотреть онлайн
    Cкачать фильм Вита и Вирджиния бесплатно
    Вита и Вирджиния скачать торрент в хорошем качестве
    Вита и Вирджиния смотреть онлайн бесплатно в хорошем качестве


    Вы не можете начинать темы
    Вы не можете отвечать на сообщения
    Вы не можете редактировать свои сообщения
    Вы не можете удалять свои сообщения
    Вы не можете голосовать в опросах
    Вы не можете прикреплять файлы к сообщениям
    Вы можете скачивать файлы