2 сезон

iTunes

MVO

1

2 сезон

iTunes

iTunes

1 сезон

RePack

30

Новинка

ВАЖНО

ИГРА 18+

pack

RePack

MK11
pack

Легкие деньги

RePack

jed

RePack

fifa19

RePack

RDR2

RePack

NEED FOR SPEED™ PAYBACK

4 сезон

9 сезон

Бесстыжие 9 сезон

Все сериалы

все сериалы на PB.wtf

RePack

FAR CRY 5

Anonymous, доброй ночи, мы не успеваем собрать деньги на оплату серверов за декабрь и январь, помогите нам пожалуйста в это трудное время. В качестве благодарности мы отключим Вам всю рекламу на сайте (укажите свой ник в строку Ваше имя)!

×
  
Magnet ссылка

Что скажут люди / Hva vil folk si / What Will People Say (Ирам Хак) [2017 г., драма, HDRip, Профессиональный (многоголосый)] pb.wtf

Что скажут люди через торрент pb.wtf

Размер: 1.46 GB | Добавлен: 1 год 2 мес. назад | Торрент скачан:25 раз
Скачать  

05-11-2019 20:44 Что скажут люди Скачать торрент  

Что скажут люди / Hva vil folk si / What Will People Say

Год выпуска: 2017
Страна: Норвегия, Германия, Швеция, Франция, Дания / Mer Film, Rohfilm Factory GmbH, Zentropa International Sweden
Жанр: драма
Продолжительность: 01:47:40
Перевод: Профессиональный (многоголосый) [Канал "Культура"]

Режиссер: Ирам Хак

rating

В ролях: Мария Мозда, Адиль Хуссэйн, Экавали Кханна, Рохит Сараф, Али Арфан, Шиба Чадха, Лалит Париму, Нококур Дал, Исак Ли Харр, Мария Бок

Описание: Ниша — шестнадцатилетняя девушка, ведущая двойную жизнь. Дома она примерная дочь, живущая по правилам, установленным в её пакистанской семье. В кругу друзей она ничем не отличается от обычных норвежских подростков. Когда отец застаёт девушку в комнате с бойфрендом, её жизнь резко меняется.

Доп. информация: Без рекламы!

Качество: HDRip
Формат: AVI
Видео кодек: XviD
Аудио кодек: AC3
Видео: 1346 Kb/s, 720x304
Аудио#1: Russian: AC3, 192 Kb/s (2 ch)
Аудио#2: Norwegian: AC3, 384 Kb/s (6 ch)

Общее
Полное имя : Hva vil folk si.2017.P.HDRip.avi
Формат : AVI
Формат/Информация : Audio Video Interleave
Размер файла : 1,46 Гбайт
Продолжительность : 1 ч. 47 м.
Общий поток : 1936 Кбит/сек
Название фильма : Что скажут люди / Hva vil folk si / What will people say (2017)
Программа кодирования : VirtualDubMod 1.5.10.2 (build 2540/release)
Библиотека кодирования : VirtualDubMod build 2540/release
Авторское право : miha2154

Видео
Идентификатор : 0
Формат : MPEG-4 Visual
Профиль формата : Advanced Simple@L5
Настройки формата : BVOP1 / Custom Matrix
Параметр BVOP формата : 1
Параметр QPel формата : Нет
Параметр GMC формата : Без точки перехода
Параметр матрицы формата : Выборочная
Идентификатор кодека : XVID
Идентификатор кодека/Подсказка : XviD
Продолжительность : 1 ч. 47 м.
Битрейт : 1346 Кбит/сек
Ширина : 720 пикселей
Высота : 304 пикселя
Соотношение сторон : 2,35:1
Частота кадров : 24,000 кадра/сек
Цветовое пространство : YUV
Субдискретизация насыщенности : 4:2:0
Битовая глубина : 8 бит
Тип развёртки : Прогрессивная
Метод сжатия : С потерями
Бит/(Пиксели*Кадры) : 0.256
Размер потока : 1,01 Гбайт (70%)
Библиотека кодирования : XviD 65

Аудио #1
Идентификатор : 1
Формат : AC-3
Формат/Информация : Audio Coding 3
Коммерческое название : Dolby Digital
Идентификатор кодека : 2000
Продолжительность : 1 ч. 47 м.
Вид битрейта : Постоянный
Битрейт : 192 Кбит/сек
Каналы : 2 канала
ChannelLayout : L R
Частота : 48,0 КГц
Частота кадров : 31,250 кадров/сек (1536 SPF)
Метод сжатия : С потерями
Размер потока : 148 Мбайт (10%)
Выравнивание : Разделение по промежуткам
Продолжительность промежутка : 42 мс. (1,00 видеокадр)
Время предзагрузки промежутка : 500 мс.
Заголовок : Профессиональный (многоголосый, закадровый) Культура
ServiceKind/String : Complete Main

Аудио #2
Идентификатор : 2
Формат : AC-3
Формат/Информация : Audio Coding 3
Коммерческое название : Dolby Digital
Идентификатор кодека : 2000
Продолжительность : 1 ч. 47 м.
Вид битрейта : Постоянный
Битрейт : 384 Кбит/сек
Каналы : 6 каналов
ChannelLayout : L R C LFE Ls Rs
Частота : 48,0 КГц
Частота кадров : 31,250 кадров/сек (1536 SPF)
Метод сжатия : С потерями
Размер потока : 296 Мбайт (20%)
Выравнивание : Разделение по промежуткам
Продолжительность промежутка : 42 мс. (1,00 видеокадр)
Время предзагрузки промежутка : 500 мс.
Заголовок : Урду, Норвежский
ServiceKind/String : Complete Main

pb.wtf



Скачать Что скажут люди через торрент http://pic1.kartinco.top/images/12/2knev.jpg Скачать фильм Что скажут люди через торрент бесплантно в хорошем качестве Описание: Ниша — шестнадцатилетняя девушка, ведущая двойную жизнь. Дома она примерная дочь, живущая по правилам, установленным в её ... 8 10 2
Торрент: Зарегистрирован [2019-11-05 20:44] · скачан: 25 раз
Статус: T временная
Размер: 1.46 GB
Как cкачать? Как скачать Что скажут люди через торрент | UTorrent

28-11-2019 20:33  

Отключить всю рекламу на сайте

    Дорогой пользователь! Огромная просьба, поблагодарите релизера, оцените раздачу и оставьте свои комментарий, если Вы скачали Что скажут люди через торрент бесплатно! Внесите свою лепту в развитие PiratBit!
    Комментировать посты могут только пользователи прошедшие не сложную регистрацию
    Показать сообщения:    

    Что скажут люди через торрент
    Скачать бесплатно Что скажут люди
    Что скажут люди скачать торрент
    Что скажут люди смотреть онлайн
    Cкачать фильм Что скажут люди бесплатно
    Что скажут люди скачать торрент в хорошем качестве
    Что скажут люди смотреть онлайн бесплатно в хорошем качестве


    Вы не можете начинать темы
    Вы не можете отвечать на сообщения
    Вы не можете редактировать свои сообщения
    Вы не можете удалять свои сообщения
    Вы не можете голосовать в опросах
    Вы не можете прикреплять файлы к сообщениям
    Вы можете скачивать файлы