новый адрес
Ссылка на приватное зеркало всего за 1$. Внимание количество ограничено!!!

iTunes

1+1

iTunes

мы

WEB-DL

1

iTunes

Чернобыль

iTunes

Ральф против интернета

Лицензия

ПШазам

Лицензия

Оно 2

Лицензия

30
pack

Вам бонус

ВАЖНО

!!Акция!!

Alien_RageХит недели

RePack

Resident Evil 21

ИГРА 18+

pack

RePack

jed

!!Акция!!

Alien_Rage

RePack

fifa19

RePack

Assassins Creed: Odyssey

RePack

NEED FOR SPEED™ PAYBACK

3 сезон

9 сезон

Бесстыжие 9 сезон

Все сериалы

все сериалы на PB.wtf

RePack

FAR CRY 5
Ребята, катастрофически не хватает 1900р. для оплаты серверов за Октябрь (всвязи с блокировками трафик упал в 3 раза), 1-2р., выручайте.
  

Райские холмы / Paradise Hills (Элис Вэддингтон) [ 2019, Фэнтези, WEBRip-AVC] MVO [HDRezka Studio] - ExKinoRay pb.wtf

Райские холмы через торрент pb.wtf

Раздают: 56 [ 9 KB/s ] Качают: 1 [ 0 KB/s ]
Размер: 1.37 GB | Добавлен: 1 мес. 2 д. назад | Торрент скачан:250 раз
Скачать  

06-11-2019 01:33 Райские холмы Скачать торрент  

Информация о фильме
Название: Райские холмы
Оригинальное название: Paradise Hills
Год выхода: 2019
Жанр: Фэнтези
Режиссер: Элис Вэддингтон
В ролях: Эйса Гонсалес, Аквафина, Милла Йовович, Эмма Робертс, Джереми Ирвин, Даниэль МакДональд, Лилиана Кабаль, Арно Валуа, Хантер Тремейн, Дэниэл Хорват

rating

Описание: Добро пожаловать в дивный новый мир. Здесь создан высокотехнологичный остров, имя которому «Райские холмы». Богатые семьи отправляют сюда «несовершенных» дочерей, чтобы преобразить их по своему подобию. Ведь если ты принадлежишь к высшему обществу, даже в далеком будущем брак по любви - непозволительная роскошь. Красота, покорность и непорочность - вот путь к новой жизни. И тебя ждет прекрасное будущее, но только если ты готова подчиняться правилам...

Страна: Испания
Студия: Nostromo Pictures, Colina Paraiso AIE, Radio Televisión Española
Продолжительность: 01:33:46
Перевод: Профессиональный многоголосый (HDRezka Studio)

Формат: MKV
Качество: WEBRip-AVC
Видео: MPEG-4 AVC, 720x360 (16:9), 23.976 fps, 1893 Kbps, 0.305 bit/pixel
Звук: 48 kHz, AC3, 2/0 (L,R), ~192 kbps avg
Субтитры: Русские (форсированные, хардсаб)
General
Unique ID : 197570332231326656286580971553318185657 (0x94A2A9720FA5F877B3C0C33B8DDB2AB9)
Complete name : F:\Paradise.Hills.2019.MVO.AVC.ExKinoRay.mkv
Format : Matroska
Format version : Version 2
File size : 1.37 GiB
Duration : 1 h 33 min
Overall bit rate : 2 085 kb/s
Movie name : Paradise Hills 2019 from ExKinoRay
Encoded date : UTC 2019-10-15 04:08:28
Writing application : mkvmerge v5.6.0 ('Kenya Kane') built on May 27 2012 16:44:04
Writing library : libebml v1.2.3 + libmatroska v1.3.0

Video
ID : 1
Format : AVC
Format/Info : Advanced Video Codec
Format profile : High@L4.1
Format settings, CABAC : Yes
Format settings, ReFrames : 11 frames
Codec ID : V_MPEG4/ISO/AVC
Duration : 1 h 33 min
Bit rate : 1 893 kb/s
Width : 720 pixels
Height : 360 pixels
Display aspect ratio : 2.000
Frame rate mode : Constant
Frame rate : 23.976 (24000/1001) FPS
Original frame rate : 23.976 (23976/1000) FPS
Color space : YUV
Chroma subsampling : 4:2:0
Bit depth : 8 bits
Scan type : Progressive
Bits/(Pixel*Frame) : 0.305
Stream size : 1.21 GiB (89%)
Title : Enigma
Writing library : x264 core 152 r2851 ba24899
Encoding settings : cabac=1 / ref=11 / deblock=1:-2:-2 / analyse=0x3:0x113 / me=umh / subme=10 / psy=1 / psy_rd=1.00:0.00 / mixed_ref=1 / me_range=32 / chroma_me=1 / trellis=2 / 8x8dct=1 / cqm=0 / deadzone=21,11 / fast_pskip=0 / chroma_qp_offset=-2 / threads=11 / lookahead_threads=1 / sliced_threads=0 / nr=0 / decimate=0 / interlaced=0 / bluray_compat=0 / constrained_intra=0 / bframes=9 / b_pyramid=2 / b_adapt=2 / b_bias=0 / direct=3 / weightb=1 / open_gop=0 / weightp=2 / keyint=240 / keyint_min=23 / scenecut=40 / intra_refresh=0 / rc=2pass / mbtree=0 / bitrate=1893 / ratetol=1.0 / qcomp=0.60 / qpmin=0 / qpmax=51 / qpstep=4 / cplxblur=20.0 / qblur=0.5 / ip_ratio=1.30 / pb_ratio=1.20 / aq=1:1.00
Default : Yes
Forced : No
Color range : Limited
Color primaries : BT.709
Transfer characteristics : BT.709
Matrix coefficients : BT.709

Audio
ID : 2
Format : AC-3
Format/Info : Audio Coding 3
Mode extension : CM (complete main)
Format settings, Endianness : Big
Codec ID : A_AC3
Duration : 1 h 33 min
Bit rate mode : Constant
Bit rate : 192 kb/s
Channel(s) : 2 channels
Channel positions : Front: L R
Sampling rate : 48.0 kHz
Frame rate : 31.250 FPS (1536 spf)
Compression mode : Lossy
Stream size : 129 MiB (9%)
Title : MVO
Language : Russian
Default : Yes
Forced : No


Релиз от:

Автор релиза: pb.wtf



Скачать Райские холмы через торрент https://c.radikal.ru/c28/1910/e8/bb2fe833cde1.jpg Скачать фильм Райские холмы через торрент бесплантно в хорошем качестве Описание: Добро пожаловать в дивный новый мир. Здесь создан высокотехнологичный остров, имя которому «Райские холмы». Богатые семьи ... 8.8 10 8
Info! Золотая раздача, скачанное не засчитывается.
Торрент: Зарегистрирован [2019-11-06 01:33] · скачан: 250 раз
Статус: T временная
Размер: 1.37 GB
Как cкачать? Как скачать Райские холмы через торрент | qTorrent

28-11-2019 20:33  

Отключить всю рекламу на сайте

10-11-2019 13:43 Райские холмы Скачать торрент  

Мало того что нудятина, так еще и чушь не сусветнаяpb.wtf



    Дорогой пользователь! Огромная просьба, поблагодарите релизера, оцените раздачу и оставьте свои комментарий, если Вы скачали Райские холмы через торрент бесплатно! Внесите свою лепту в развитие PiratBit!
    Комментировать посты могут только пользователи прошедшие не сложную регистрацию
    Показать сообщения:    

    Райские холмы через торрент
    Скачать бесплатно Райские холмы
    Райские холмы скачать торрент
    Райские холмы смотреть онлайн
    Cкачать фильм Райские холмы бесплатно
    Райские холмы скачать торрент в хорошем качестве
    Райские холмы смотреть онлайн бесплатно в хорошем качестве


    Вы не можете начинать темы
    Вы не можете отвечать на сообщения
    Вы не можете редактировать свои сообщения
    Вы не можете удалять свои сообщения
    Вы не можете голосовать в опросах
    Вы не можете прикреплять файлы к сообщениям
    Вы можете скачивать файлы