новый адрес
Ссылка на приватное зеркало всего за 1$. Внимание количество ограничено!!!

iTunes

1+1

iTunes

мы

WEB-DL

1

iTunes

Чернобыль

iTunes

Ральф против интернета

Лицензия

ПШазам

Лицензия

Оно 2

Лицензия

30
pack

Вам бонус

ВАЖНО

!!Акция!!

Alien_RageХит недели

RePack

Resident Evil 21

ИГРА 18+

pack

RePack

jed

!!Акция!!

Alien_Rage

RePack

fifa19

RePack

Assassins Creed: Odyssey

RePack

NEED FOR SPEED™ PAYBACK

3 сезон

9 сезон

Бесстыжие 9 сезон

Все сериалы

все сериалы на PB.wtf

RePack

FAR CRY 5
Ребята, катастрофически не хватает 1900р. для оплаты серверов за Октябрь (всвязи с блокировками трафик упал в 3 раза), 1-2р., выручайте.
  

Ты умеешь хранить секреты? / Can You Keep a Secret? (Элиз Дюран) [2019, Мелодрама, комедия, WEB-DLRip-AVC] DUB [iTunes] pb.wtf

Ты умеешь хранить секреты? через торрент pb.wtf

Раздают: 10 [ 130 KB/s ]
Размер: 2.19 GB | Добавлен: 1 мес. 1 д. назад | Торрент скачан:155 раз
Скачать  

06-11-2019 05:58 Ты умеешь хранить секреты? Скачать торрент  

Ты умеешь хранить секреты? / Can You Keep a Secret?
Год выпуска: 2019
Страна: США
Жанр: Мелодрама, комедия
Продолжительность: 01:34:36
Перевод: Дублированный | iTunes
Субтитры: Русские (Full), английские (Full, SDH) [вшитые отключаемые]

Режиссер: Элиз Дюран

rating


В ролях: Александра Даддарио, Тайлер Хэклин, Кимико Гленн, Лаверн Кокс, Сунита Мани, Джуда Фридландер, Сэм Асгари, Кейт Кастонгуэй, Эшлин Алесси, Бобби Тисдэйл

Описание: Эмма с треском провалила совещание и возвращается из командировки самолётом. Настроение - хуже некуда, вдобавок девушка боится летать, поэтому хорошенько принимает на грудь перед посадкой. Сочувствующая стюардесса предлагает ей свободное место в первом классе, где разносят шампанское, поэтому при первой же турбулентности от страха Эмма начинает вываливать все свои секреты сидящему рядом мужчине. Она рассказывает ему всё - от нюансов личной жизни до офисных взаимоотношений. И каково же было удивление девушки, когда на следующий день выяснилось, что тот самый сосед по самолёту - её босс и основатель компании - пришёл в их офис проверить работу отделения.

Качество: WEB-DLRip-AVC
Формат: MKV

Видео: MPEG-4 AVC, 2500 Кбит/сек, 1024x560
Аудио#1: Русский: AC3, 6 ch, 384 Кбит/сек,
Аудио#2: Английский: AC3, 6 ch, 448 Кбит/сек
скриншот  скриншот  скриншот  

Общее
Уникальный идентификатор : 98331005891143906334264079516625804890 (0x49F9DCE518E7CA14A3089BEFC2A81E5A)
Полное имя : F:\РЕЛИЗЫ\01. ФИЛЬМЫ\Ты умеешь хранить секреты Can You Keep a Secret 2019\Can You Keep a Secret (2019).mkv
Формат : Matroska
Версия формата : Version 4
Размер файла : 2,19 Гбайт
Продолжительность : 1 ч. 34 м.
Общий поток : 3307 Кбит/сек
Программа кодирования : Lavf
Библиотека кодирования : Lavf
ErrorDetectionType : Per level 1
Attachments : poster.jpg
Язык : und

Видео
Идентификатор : 1
Формат : AVC
Формат/Информация : Advanced Video Codec
Профиль формата : High@L4.1
Настройки формата : CABAC / 10 Ref Frames
Параметр CABAC формата : Да
Параметр RefFrames формата : 10 кадров
Идентификатор кодека : V_MPEG4/ISO/AVC
Продолжительность : 1 ч. 34 м.
Битрейт : 2500 Кбит/сек
Ширина : 1024 пикселя
Высота : 560 пикселей
Соотношение сторон : 1,85:1
Режим частоты кадров : Постоянный
Частота кадров : 23,976 (24000/1001) кадра/сек
Цветовое пространство : YUV
Субдискретизация насыщенности : 4:2:0
Битовая глубина : 8 бит
Тип развёртки : Прогрессивная
Бит/(Пиксели*Кадры) : 0.182
Размер потока : 1,59 Гбайт (73%)
Заголовок : USA (BCDF Pictures, Big Indie Pictures)
Библиотека кодирования : x264 core 157 r2958 57baac4
Настройки программы : cabac=1 / ref=10 / deblock=1:-3:-3 / analyse=0x3:0x133 / me=umh / subme=11 / psy=1 / psy_rd=1.05:0.10 / mixed_ref=1 / me_range=32 / chroma_me=1 / trellis=2 / 8x8dct=1 / cqm=0 / deadzone=21,11 / fast_pskip=0 / chroma_qp_offset=-3 / threads=11 / lookahead_threads=1 / sliced_threads=0 / nr=0 / decimate=1 / interlaced=0 / bluray_compat=0 / constrained_intra=0 / bframes=10 / b_pyramid=2 / b_adapt=1 / b_bias=8 / direct=1 / weightb=1 / open_gop=0 / weightp=1 / keyint=240 / keyint_min=24 / scenecut=40 / intra_refresh=0 / rc_lookahead=60 / rc=abr / mbtree=1 / bitrate=2500 / ratetol=1.0 / qcomp=0.70 / qpmin=3 / qpmax=69 / qpstep=4 / ip_ratio=1.40 / aq=2:1.00
Default : Да
Forced : Нет
Цветовой диапазон : Limited
Основные цвета : BT.709
Характеристики трансфера : BT.709
Коэффициенты матрицы : BT.709

Аудио #1
Идентификатор : 2
Формат : AC-3
Формат/Информация : Audio Coding 3
Коммерческое название : Dolby Digital
Идентификатор кодека : A_AC3
Продолжительность : 1 ч. 34 м.
Вид битрейта : Постоянный
Битрейт : 384 Кбит/сек
Каналы : 6 каналов
ChannelLayout : L R C LFE Ls Rs
Частота : 48,0 КГц
Частота кадров : 31,250 кадров/сек (1536 SPF)
Битовая глубина : 32 бит
Метод сжатия : С потерями
Размер потока : 260 Мбайт (12%)
Заголовок : Dub (iTunes)
Язык : Russian
ServiceKind/String : Complete Main
Default : Да
Forced : Нет

Аудио #2
Идентификатор : 3
Формат : AC-3
Формат/Информация : Audio Coding 3
Коммерческое название : Dolby Digital
Идентификатор кодека : A_AC3
Продолжительность : 1 ч. 34 м.
Вид битрейта : Постоянный
Битрейт : 448 Кбит/сек
Каналы : 6 каналов
ChannelLayout : L R C LFE Ls Rs
Частота : 48,0 КГц
Частота кадров : 31,250 кадров/сек (1536 SPF)
Битовая глубина : 32 бит
Метод сжатия : С потерями
Размер потока : 303 Мбайт (14%)
Заголовок : Original
Язык : English
ServiceKind/String : Complete Main
Default : Нет
Forced : Нет

Текст #1
Идентификатор : 4
Формат : UTF-8
Идентификатор кодека : S_TEXT/UTF8
Идентификатор кодека/Информация : UTF-8 Plain Text
Заголовок : Full-length
Язык : Russian
Default : Да
Forced : Нет

Текст #2
Идентификатор : 5
Формат : UTF-8
Идентификатор кодека : S_TEXT/UTF8
Идентификатор кодека/Информация : UTF-8 Plain Text
Заголовок : Full-length
Язык : English
Default : Нет
Forced : Нет

Текст #3
Идентификатор : 6
Формат : UTF-8
Идентификатор кодека : S_TEXT/UTF8
Идентификатор кодека/Информация : UTF-8 Plain Text
Заголовок : SDH
Язык : English
Default : Нет
Forced : Нет

pb.wtf



Скачать Ты умеешь хранить секреты? через торрент https://d.radikal.ru/d23/1911/58/257a27302564.png Скачать фильм Ты умеешь хранить секреты? через торрент бесплантно в хорошем качестве Описание: Эмма с треском провалила совещание и возвращается из командировки самолётом. Настроение - хуже некуда, вдобавок девушка боится ... 10 10 5
Торрент: Зарегистрирован [2019-11-06 05:58] · скачан: 155 раз
Статус: √ проверено
Размер: 2.19 GB
Как cкачать? Как скачать Ты умеешь хранить секреты? через торрент | qTorrent

28-11-2019 20:33  

Отключить всю рекламу на сайте

    Дорогой пользователь! Огромная просьба, поблагодарите релизера, оцените раздачу и оставьте свои комментарий, если Вы скачали Ты умеешь хранить секреты? через торрент бесплатно! Внесите свою лепту в развитие PiratBit!
    Комментировать посты могут только пользователи прошедшие не сложную регистрацию
    Показать сообщения:    

    Ты умеешь хранить секреты? через торрент
    Скачать бесплатно Ты умеешь хранить секреты?
    Ты умеешь хранить секреты? скачать торрент
    Ты умеешь хранить секреты? смотреть онлайн
    Cкачать фильм Ты умеешь хранить секреты? бесплатно
    Ты умеешь хранить секреты? скачать торрент в хорошем качестве
    Ты умеешь хранить секреты? смотреть онлайн бесплатно в хорошем качестве


    Вы не можете начинать темы
    Вы не можете отвечать на сообщения
    Вы не можете редактировать свои сообщения
    Вы не можете удалять свои сообщения
    Вы не можете голосовать в опросах
    Вы не можете прикреплять файлы к сообщениям
    Вы можете скачивать файлы