новый адрес пиратбит piratbit
Мега распродажа FORZA HORIZON 4 ULTIMATE+ВСЕ DLC+ОНЛАЙН всего за 499р. 349 руб. (супер цена). Внимание количество ограничено!!!

iTunes

1+1

iTunes

мы

iTunes

1

iTunes

Чернобыль

iTunes

Ральф против интернета

Лицензия

ПШазам

Лицензия

Игра престолов

Лицензия

30
pack

ВАЖНО

!!Акция!!

Alien_RageХит недели

RePack

Resident Evil 21

ИГРА 18+

pack

RePack

Metro:Exodus

!!Акция!!

Alien_Rage

RePack

fifa19

RePack

Assassins Creed: Odyssey

RePack

NEED FOR SPEED™ PAYBACK

3 сезон

9 сезон

Бесстыжие 9 сезон

Все сериалы

все сериалы на PB.wtf

RePack

FAR CRY 5
Ребята, катастрофически не хватает 1900р. для оплаты серверов за Октябрь (всвязи с блокировками трафик упал в 3 раза), 1-2р., выручайте.
  

Царство / Kingdom (Синсуке Сато) [2019, Драма, боевик, военный, история, WEB-DLRip-AVC] DUB [iTunes] - OlLanDGroup pb.wtf

Царство через торрент pb.wtf

Раздают: 4 [ 4 KB/s ]
Размер: 1.46 GB | Добавлен: 7 д. назад | Торрент скачан:14 раз
Скачать  

06-11-2019 07:40 Царство Скачать торрент  

Царство / Kingdom Год выпуска: 2019
Страна: Япония
Жанр: Драма, боевик, военный, история
Продолжительность: 02:13:54

Перевод: Дублированный | iTunes
Субтитры: отсутствуют

Режиссер: Синсуке Сато


rating

В ролях: Рё Ёсидзава, Кэнто Ямадзаки, Масами Нагасава, Канна Хасимото, Масая Като, Каната Хонго, Синносукэ Мицусима, Масахиро Такасима, Джан Канаме, Такао Осава

Описание: III век до н. э., период Сражающихся царств, когда на территории современного Китая было множество постоянно воевавших друг с другом небольших государств. Где-то на задворках одного из таких царств живут двое сирот и ежедневно тренируются, чтобы исполнить свою мечту стать великими генералами. Но один из друзей оказывается поразительно похож на правителя, и парня забирают во дворец в качестве его двойника.

Качество: WEB-DLRip-AVC
Формат: MKV

Видео: 720x302 (2.40:1), 24 fps, x264 ~1 174 kbps avg, 0.225 bit/pixel
Аудио: 48 kHz, AC3 Dolby Digital, 3/2 (L,C,R,l,r) + LFE ch, ~386 kbps avg | RUS
General
Unique ID : 277634515172775448342793512426458480179 (0xD0DE766F5B4F406192350B413E827E33)
Complete name : D:\OlLanDGroup\Kingdom.2019WEB-DLRip(AVC).OlLanDGroup.mkv
Format : Matroska
Format version : Version 4
File size : 1.46 GiB
Duration : 2 h 13 min
Overall bit rate : 1 560 kb/s
Movie name : Kingdom.2019WEB-DLRip(AVC).OlLanDGroup#Skandar#
Encoded date : UTC 2019-11-06 04:29:10
Writing application : mkvmerge v31.0.0 ('Dolores In A Shoestand') 64-bit
Writing library : libebml v1.3.6 + libmatroska v1.4.9

Video
ID : 1
Format : AVC
Format/Info : Advanced Video Codec
Format profile : High@L4.1
Format settings : CABAC / 10 Ref Frames
Format settings, CABAC : Yes
Format settings, ReFrames : 10 frames
Codec ID : V_MPEG4/ISO/AVC
Duration : 2 h 13 min
Bit rate : 1 174 kb/s
Width : 720 pixels
Height : 302 pixels
Display aspect ratio : 2.40:1
Frame rate mode : Constant
Frame rate : 24.000 FPS
Color space : YUV
Chroma subsampling : 4:2:0
Bit depth : 8 bits
Scan type : Progressive
Bits/(Pixel*Frame) : 0.225
Stream size : 1.10 GiB (75%)
Title : Kingdom.2019WEB-DLRip(AVC).OlLanDGroup#Skandar#
Writing library : x264 core 146 r2538 121396c
Encoding settings : cabac=1 / ref=10 / deblock=1:-3:-3 / analyse=0x3:0x133 / me=umh / subme=11 / psy=1 / psy_rd=0.97:0.05 / mixed_ref=1 / me_range=48 / chroma_me=1 / trellis=2 / 8x8dct=1 / cqm=0 / deadzone=21,11 / fast_pskip=0 / chroma_qp_offset=-3 / threads=6 / lookahead_threads=1 / sliced_threads=0 / nr=0 / decimate=0 / interlaced=0 / bluray_compat=0 / constrained_intra=0 / bframes=11 / b_pyramid=2 / b_adapt=2 / b_bias=0 / direct=3 / weightb=1 / open_gop=0 / weightp=2 / keyint=240 / keyint_min=23 / scenecut=40 / intra_refresh=0 / rc_lookahead=40 / rc=2pass / mbtree=0 / bitrate=1174 / ratetol=1.0 / qcomp=0.60 / qpmin=0 / qpmax=69 / qpstep=4 / cplxblur=20.0 / qblur=0.5 / vbv_maxrate=50000 / vbv_bufsize=62500 / nal_hrd=none / filler=0 / ip_ratio=1.40 / pb_ratio=1.30 / aq=1:1.00
Language : Russian
Default : Yes
Forced : No

Audio
ID : 2
Format : AC-3
Format/Info : Audio Coding 3
Commercial name : Dolby Digital
Codec ID : A_AC3
Duration : 2 h 13 min
Bit rate mode : Constant
Bit rate : 384 kb/s
Channel(s) : 6 channels
Channel layout : L R C LFE Ls Rs
Sampling rate : 48.0 kHz
Frame rate : 31.250 FPS (1536 SPF)
Bit depth : 16 bits
Compression mode : Lossy
Stream size : 368 MiB (25%)
Title : DUB (iTunes)
Language : Russian
Service kind : Complete Main
Default : Yes
Forced : No

Menu
00:00:00.000 : en:Глава 1
00:04:03.000 : en:Глава 2
00:11:26.958 : en:Глава 3
00:14:59.333 : en:Глава 4
00:23:31.499 : en:Глава 5
00:33:07.249 : en:Глава 6
00:41:36.790 : en:Глава 7
00:45:59.373 : en:Глава 8
00:55:08.081 : en:Глава 9
01:01:35.081 : en:Глава 10
01:07:42.164 : en:Глава 11
01:11:38.080 : en:Глава 12
01:21:32.705 : en:Глава 13
01:30:42.496 : en:Глава 14
01:40:59.704 : en:Глава 15
01:52:25.454 : en:Глава 16
01:57:54.412 : en:Глава 17
02:07:36.203 : en:Глава 18
Релиз от:
pb.wtf



Скачать Царство через торрент http://d.radikal.ru/d35/1911/fb/a2c55c1da3f6.jpg Скачать фильм Царство через торрент бесплантно в хорошем качестве Описание: III век до н. э., период Сражающихся царств, когда на территории современного Китая было множество постоянно воевавших друг с ... 10 10 2
Торрент: Зарегистрирован [2019-11-06 07:40] · скачан: 14 раз
Статус: √ проверено
Размер: 1.46 GB
Как cкачать? Как скачать Царство через торрент | qTorrent


>> Регистрируемся здесь <<






Отзывы и комментарии о схеме читаем и пишем здесь: ---> Отзывы и комментарии о схеме

Новые благодарочки в телеграм довольных пользователей:
скриншот   скриншот   скриншот   скриншот   скриншот
    Дорогой пользователь! Огромная просьба, поблагодарите релизера, оцените раздачу и оставьте свои комментарий, если Вы скачали Царство через торрент бесплатно! Внесите свою лепту в развитие PiratBit!
    Комментировать посты могут только пользователи прошедшие не сложную регистрацию
    Показать сообщения:    

    Царство через торрент
    Скачать бесплатно Царство
    Царство скачать торрент
    Царство смотреть онлайн
    Cкачать фильм Царство бесплатно
    Царство скачать торрент в хорошем качестве
    Царство смотреть онлайн бесплатно в хорошем качестве


    Вы не можете начинать темы
    Вы не можете отвечать на сообщения
    Вы не можете редактировать свои сообщения
    Вы не можете удалять свои сообщения
    Вы не можете голосовать в опросах
    Вы не можете прикреплять файлы к сообщениям
    Вы можете скачивать файлы