Всегда рабочее зеркало без VPN и Proxy просто перед .vidak.icu напиши любое слово или цифру, Пример http://x2jc.vidak.icu

MVO

2 сезон

1 сезон

1

1 сезон

iTunes

2 сезон

13

1 сезон

Deluxe

pack

Рекомендуем

Пиратка

30

ВАЖНО

RePack

MK11

RePack

jed

RePack

fifa19

RePack

RDR2

RePack

NEED FOR SPEED™ PAYBACK

Кинопоиск HD

6 сезон

 Острые козырьки 6 сезон

Все сериалы

все сериалы на PB.wtf

RePack

FAR CRY 5

Anonymous, нам критически не хватает 5601 руб. на оплату серверов и переферии за Апрель, помоги нам пожалуйста, вся надежда только на тебя. В благодарность мы отключим тебе всю рекламу на сайте!

×
  
Magnet ссылка

Короли интриги / El Cuento de las Comadrejas (Хуан Хосе Кампанелья) [2019 г., комедия, детектив, WEB-DLRip 720p, Профессиональный (многоголосый) [iTunes]] pb.wtf

Короли интриги через торрент pb.wtf

Размер: 3.84 GB | Добавлен: 2 года 6 мес. назад | Торрент скачан:130 раз
Смотреть онлайн Короли интриги | Скачать    Ребята, помогите собрать деньги на оплату серверов!!!

06-11-2019 10:02 Короли интриги Скачать торрент  

Короли интриги / El Cuento de las Comadrejas

Год выпуска: 2019
Страна: Аргентина, Испания / 100 Bares, Instituto Nacional de Cine y Artes Audiovisuales (INCAA), Instituto de la Cinematografía y de las Artes Audiovisuales
Жанр: комедия, детектив
Продолжительность: 02:08:51
Перевод: Профессиональный (многоголосый) [iTunes]
Субтитры: Нет

Режиссер: Хуан Хосе Кампанелья

rating

В ролях: Грасиэла Борхес, Оскар Мартинес, Луис Брандони, Маркос Мандсток, Клара Лаго, Николас Франсельа, Лус Киприота, Мару Запата, Anwar Yoma, Мануэль Мартинес Собрадо

Описание: Мара Ортис, забытая всеми кинозвезда «золотой эпохи» ведет затворнический образ жизни в старинном особняке в пригороде Буэнос-Айреса. Свой кров актриса делит с экстравагантной компанией бывших свидетелей ее увядшей славы - влюбленным в нее супругом-актером эпизода, язвительным сценаристом и режиссером-циником. Отношения этой четверки далеки от совершенства: они балансируют между обожанием и неприязнью. Однажды в поместье появляются нежданные гости - молодая пара, положившая глаз на звездное поместье. Они притворяются поклонниками Мары и убеждают актрису продать дом. Однако на пути «акул бизнеса» встают мастера дьявольских интриг. Смертельный поединок начинается...

Доп. информация: Сохранены оригинальные чаптеры

Качество: WEB-DLRip
Формат: MKV
Видео кодек: x264
Аудио кодек: AC3
Видео: 3883 Kb/s, 1280x536
Аудио#1: AC3, 384 Kb/s (6 ch)

Общее
Уникальный идентификатор : 61577216852986938684547429357209087538 (0x2E53573071345AE344DFA710C7816E32)
Полное имя : Koroli intrigi.2019.P.WEB-DL.720p.mkv
Формат : Matroska
Версия формата : Version 4
Размер файла : 3,84 Гбайт
Продолжительность : 2 ч. 8 м.
Общий поток : 4269 Кбит/сек
Дата кодирования : UTC 2019-11-05 19:55:38
Программа кодирования : mkvmerge v8.5.1 ('Where you lead I will follow') 64bit
Библиотека кодирования : libebml v1.3.3 + libmatroska v1.4.4

Видео
Идентификатор : 1
Формат : AVC
Формат/Информация : Advanced Video Codec
Профиль формата : Main@L3.1
Настройки формата : 2 Ref Frames
Параметр CABAC формата : Нет
Параметр RefFrames формата : 2 кадра
Режим смешивания : zlib
Идентификатор кодека : V_MPEG4/ISO/AVC
Продолжительность : 2 ч. 8 м.
Битрейт : 3883 Кбит/сек
Ширина : 1280 пикселей
Высота : 536 пикселей
Соотношение сторон : 2,40:1
Режим частоты кадров : Постоянный
Частота кадров : 24,000 кадра/сек
Цветовое пространство : YUV
Субдискретизация насыщенности : 4:2:0
Битовая глубина : 8 бит
Тип развёртки : Прогрессивная
Бит/(Пиксели*Кадры) : 0.236
Размер потока : 3,50 Гбайт (91%)
Заголовок : Main Program
Язык : Spanish
Default : Да
Forced : Нет
Цветовой диапазон : Limited
Основные цвета : BT.709
Характеристики трансфера : BT.709
Коэффициенты матрицы : BT.709

Аудио
Идентификатор : 2
Формат : AC-3
Формат/Информация : Audio Coding 3
Коммерческое название : Dolby Digital
Идентификатор кодека : A_AC3
Продолжительность : 2 ч. 8 м.
Вид битрейта : Постоянный
Битрейт : 384 Кбит/сек
Каналы : 6 каналов
ChannelLayout : L R C LFE Ls Rs
Частота : 48,0 КГц
Частота кадров : 31,250 кадров/сек (1536 SPF)
Метод сжатия : С потерями
Размер потока : 354 Мбайт (9%)
Заголовок : Russian MVO from iTunes Russia DD 5.1
Язык : Russian
ServiceKind/String : Complete Main
Default : Да
Forced : Нет

Меню
00:00:00.000 : en:Глава 1
00:06:35.500 : en:Глава 2
00:16:03.125 : en:Глава 3
00:24:44.500 : en:Глава 4
00:33:50.208 : en:Глава 5
00:42:01.499 : en:Глава 6
00:50:57.915 : en:Глава 7
00:57:23.748 : en:Глава 8
01:05:09.498 : en:Глава 9
01:13:51.873 : en:Глава 10
01:22:34.998 : en:Глава 11
01:31:08.831 : en:Глава 12
01:39:10.164 : en:Глава 13
01:47:56.830 : en:Глава 14
01:55:46.746 : en:Глава 15

pb.wtf



Скачать Короли интриги через торрент https://pic1.kartinco.top/images/12/bbb25.jpg Скачать, смотреть онлайн Короли интриги бесплантно в хорошем качестве Описание: Мара Ортис, забытая всеми кинозвезда «золотой эпохи» ведет затворнический образ жизни в старинном особняке в пригороде ... 9.4 10 8
Торрент: Зарегистрирован [2019-11-06 10:02] · скачан: 130 раз
Статус: √ проверено
Размер: 3.84 GB
Как cкачать? Как скачать Короли интриги через торрент | UTorrent

% Раздел Тема Автор DL S | L
Фильмы (WEB-DL 720p, 1080p) [ 4.58 GB ] Короли интриги / El Cuento de las Comadrejas [2019 WEB-DL 1080p] MVO bober100 Скачать
2 | 0
Фильмы 2019-2020 [DVDrip, WEB-DLRip, HDrip] (DUB, MVO) [ 2.13 GB ] Короли интриги / El Cuento de las Comadrejas [2019 BDRip] MVO bober100 Скачать
3 | 0
Фильмы 2019-2020 [DVDrip, WEB-DLRip, HDrip] (DUB, MVO) [ 745 MB ] Короли интриги / El Cuento de las Comadrejas [2019 WEB-DLRip-AVC] MVO - OlLanDGroup Skandar2019 Скачать
1 | 0
Фильмы 2019-2020 [DVDrip, WEB-DLRip, HDrip] (DUB, MVO) [ 1.46 GB ] Короли интриги / El Cuento de las Comadrejas [2019 BDRip] MVO bober100 Скачать
2 | 0

28-11-2019 20:33  

Отключить всю рекламу на сайте

    Дорогой пользователь! Огромная просьба, поблагодарите релизера, оцените раздачу и оставьте свои комментарий, если Вы скачали Короли интриги через торрент бесплатно!
    Комментировать посты могут только пользователи прошедшие не сложную регистрацию
    Показать сообщения:    

    Короли интриги через торрент
    Скачать бесплатно Короли интриги
    Короли интриги скачать торрент
    Короли интриги смотреть онлайн
    Cкачать фильм Короли интриги бесплатно
    Короли интриги скачать торрент в хорошем качестве
    Короли интриги смотреть онлайн бесплатно в хорошем качестве


    Вы не можете начинать темы
    Вы не можете отвечать на сообщения
    Вы не можете редактировать свои сообщения
    Вы не можете удалять свои сообщения
    Вы не можете голосовать в опросах
    Вы не можете прикреплять файлы к сообщениям
    Вы можете скачивать файлы