новый адрес
Ссылка на приватное зеркало всего за 1$. Внимание количество ограничено!!!

iTunes

1+1

iTunes

мы

WEB-DL

1

iTunes

Чернобыль

iTunes

Ральф против интернета

Лицензия

ПШазам

Лицензия

Оно 2

Лицензия

30
pack

Вам бонус

ВАЖНО

!!Акция!!

Alien_RageХит недели

RePack

Resident Evil 21

ИГРА 18+

pack

RePack

jed

!!Акция!!

Alien_Rage

RePack

fifa19

RePack

Assassins Creed: Odyssey

RePack

NEED FOR SPEED™ PAYBACK

3 сезон

9 сезон

Бесстыжие 9 сезон

Все сериалы

все сериалы на PB.wtf

RePack

FAR CRY 5
Ребята, катастрофически не хватает 1900р. для оплаты серверов за Октябрь (всвязи с блокировками трафик упал в 3 раза), 1-2р., выручайте.
  

Душа компании / Life of the Party (Бен Фэлкоун) [2018 г., комедия, HDRip, Дубляж Чистый звук] pb.wtf

Душа компании через торрент pb.wtf

Раздают: 7 [ 0 KB/s ]
Размер: 1.46 GB | Добавлен: 1 мес. 5 д. назад | Торрент скачан:90 раз
Скачать  

06-11-2019 14:08 Душа компании Скачать торрент  

Душа компании / Life of the Party

Год выпуска: 2018
Страна: США / New Line Cinema, On the Day, Warner Bros.
Жанр: комедия
Продолжительность: 01:44:49
Перевод: Дубляж Чистый звук
Режиссер: Бен Фэлкоун
rating
В ролях: Гиллиан Джейкобс, Мелисса МакКарти, Дебби Райан, Адриа Архона, Джули Боуэн, Люк Бенвард, Молли Гордон, Майя Рудольф, Стивен Рут, Крис Парнелл
Без рекламы
Описание: После неожиданного развода домохозяйка Диана решает перезапустить собственную жизнь и отправляется в колледж. Она попадает на один поток с родной дочерью, которая совсем не рада подобному повороту событий. Но Диану уже не остановить. С распростёртыми объятиями она принимает безумную студенческую жизнь.
Качество: HDRip
Формат: AVI
Видео кодек: XviD
Аудио кодек: AC3
Видео: 1603 Kb/s, 720x304
Аудио#1: AC3, 384 Kb/s (2 ch)
Релиз от:


Общее
Полное имя :Dusha.kompanii.2018.HDRip..avi
Формат : AVI
Формат/Информация : Audio Video Interleave
Профиль формата : OpenDML
Размер файла : 1,46 Гбайт
Продолжительность : 1 ч. 44 м.
Общий поток : 1994 Кбит/сек
Программа кодирования : Lavf58.20.100

Видео
Идентификатор : 0
Формат : MPEG-4 Visual
Профиль формата : Advanced Simple@L5
Настройки формата : BVOP1
Параметр BVOP формата : 1
Параметр QPel формата : Нет
Параметр GMC формата : Без точки перехода
Параметр матрицы формата : Default (H.263)
Идентификатор кодека : XVID
Идентификатор кодека/Подсказка : XviD
Продолжительность : 1 ч. 44 м.
Битрейт : 1603 Кбит/сек
Ширина : 720 пикселей
Высота : 304 пикселя
Соотношение сторон : 2,40:1
Частота кадров : 23,976 (24000/1001) кадра/сек
Цветовое пространство : YUV
Субдискретизация насыщенности : 4:2:0
Битовая глубина : 8 бит
Тип развёртки : Прогрессивная
Метод сжатия : С потерями
Бит/(Пиксели*Кадры) : 0.305
Размер потока : 1,17 Гбайт (80%)
Библиотека кодирования : XviD 67

Аудио
Идентификатор : 1
Формат : AC-3
Формат/Информация : Audio Coding 3
Коммерческое название : Dolby Digital
Идентификатор кодека : 2000
Продолжительность : 1 ч. 43 м.
Вид битрейта : Постоянный
Битрейт : 384 Кбит/сек
Каналы : 2 канала
ChannelLayout : L R
Частота : 44,1 КГц
Частота кадров : 28,711 кадров/сек (1536 SPF)
Битовая глубина : 16 бит
Метод сжатия : С потерями
Размер потока : 284 Мбайт (19%)
Выравнивание : Соединение по промежуткам
Продолжительность промежутка : 35 мс. (0,85 видеокадр)
Заголовок : (Line) ELEKTRI4KA.UNIONGANG
ServiceKind/String : Complete Main

pb.wtf



Скачать Душа компании через торрент http://pic1.kartinco.top/images/12/ackj4.jpg Скачать фильм Душа компании через торрент бесплантно в хорошем качестве Описание: После неожиданного развода домохозяйка Диана решает перезапустить собственную жизнь и отправляется в колледж. Она попадает на ... 10 10 5
Торрент: Зарегистрирован [2019-11-06 14:08] · скачан: 90 раз
Статус: T временная
Размер: 1.46 GB
Как cкачать? Как скачать Душа компании через торрент | qTorrent

% Раздел Тема Автор DL S | L
T Ultra HD (UHD: 2K, 4K, 8K) — видео сверхвысокой чёткости [ 20.54 GB ] Душа компании / Life of the Party [2018 UHD WEBRip 2160p] DUB +MVO [HDrezka Studio] bober100 Скачать
1 | 0
T Фильмы (Blu-ray, BD-Remux, HDDVD) [ 24.47 GB ] Душа компании / Life of the Party [2018 BD Remux 1080p] MVO [HDrezka Studio] bober100 Скачать
1 | 0
T Фильмы 2018 [DVDrip, WEB-DLRip, HDrip] (DUB, MVO) [ 1.61 GB ] Душа компании / Life of the Party [2018 BDRip-AVC] MVO [HDrezka Studio] bober100 Скачать
2 | 0
T Фильмы (WEB-DL 720p, 1080p) [ 3.75 GB ] Душа компании / Life of the Party [2018 WEB-DL 1080p] MVO [HDrezka Studio] bober100 Скачать
4 | 0
T R.G. Resident & PiratVoice - Фильмы, Видео [ 1.37 GB ] Душа компании / Life of the Party [2018 WEB-DLRip ] MVO [HDRezka Studio] -Lexx- Скачать
1 | 0
T Фильмы с украинским озвучиванием [ 1.13 GB ] Душа компании / Life of the Party [2018 WEB-DLRip-AVC] [Ukr DUB] killermax2013 Скачать
1 | 0

28-11-2019 20:33  

Отключить всю рекламу на сайте

06-11-2019 15:11 Душа компании Скачать торрент  

Топик был перенесен из форума Оформление раздач (Кино, Видео и ТВ) в форум Фильмы 2018 [DVDrip, WEB-DLRip, HDrip] (DUB, MVO)


bober100pb.wtf



    Дорогой пользователь! Огромная просьба, поблагодарите релизера, оцените раздачу и оставьте свои комментарий, если Вы скачали Душа компании через торрент бесплатно! Внесите свою лепту в развитие PiratBit!
    Комментировать посты могут только пользователи прошедшие не сложную регистрацию
    Показать сообщения:    

    Душа компании через торрент
    Скачать бесплатно Душа компании
    Душа компании скачать торрент
    Душа компании смотреть онлайн
    Cкачать фильм Душа компании бесплатно
    Душа компании скачать торрент в хорошем качестве
    Душа компании смотреть онлайн бесплатно в хорошем качестве


    Вы не можете начинать темы
    Вы не можете отвечать на сообщения
    Вы не можете редактировать свои сообщения
    Вы не можете удалять свои сообщения
    Вы не можете голосовать в опросах
    Вы не можете прикреплять файлы к сообщениям
    Вы можете скачивать файлы