Ссылка на приватное зеркало всего за 1$. Внимание количество ограничено!!!

iTunes

iTunes

iTunes

1

iTunes

iTunes

iTunes

iTunes

iTunes

30
pack

$ от Little Big

ВАЖНО

!!Акция!!

Alien_RageХит недели

RePack

Resident Evil 21

ИГРА 18+

pack

RePack

jed

!!Акция!!

Alien_Rage

RePack

fifa19

RePack

Assassins Creed: Odyssey

RePack

NEED FOR SPEED™ PAYBACK

4 сезон

9 сезон

Бесстыжие 9 сезон

Все сериалы

все сериалы на PB.wtf

RePack

FAR CRY 5
  

Мститель / Посыльный / Message Man (Кори Пирсон) [2018, Боевик, триллер, криминал, BDRip 1080p] DUB [iTunes] pb.wtf

Мститель через торрент pb.wtf

Раздают: 5 [ 0 KB/s ]
Размер: 7.15 GB | Добавлен: 1 мес. 12 д. назад | Торрент скачан:124 раза
Скачать  

06-11-2019 19:54 Мститель Скачать торрент  

Мститель | Посыльный | Message Man
Год выпуска: 2018
Страна: Индонезия Австралия Великобритания ОАЭ
Студия: HJ Production, Rhythmic Films, Citra Entertainment Group
Жанр: Боевик, триллер, криминал
Продолжительность: 01:30:24
Перевод: Дублированный | iTunes
Субтитры: Английские

Режиссер: Кори Пирсон

rating

В ролях: Пол О’Брайэн, Захира Алека Ашари, Альфридиус Годфред, Марио Ирвинся, Агни Пратиштха Кусвардоно, Рики Мартин, Валентайн Пайен, Гэри Плант, Эрма Пратма, Пэтти Сандя

Описание: Приняв решение покончить с криминальным прошлым, бывший наемный убийца оседает вблизи побережья Индонезии, используя в качестве жилья маленькую яхту. Скромное и одинокое существование помогает Райану восстановить душевное спокойствие, но однажды его покой нарушает знакомство с задорным мальчиком Дони, которое быстро перерастает в дружбу. Однако вскоре размеренной жизни Райана приходит конец, когда Дони оказывается при смерти из-за действий местных бандитов. Готовясь отомстить за лучшего друга, бывший наемник неожиданно узнает, что индонезийские головорезы связаны с врагом из его прошлого...

Качество: BDRip 1080p
Формат: MKV

Видео: MPEG-4 AVC, 1920x802, 10.3 Mbit/s, 23.976 fps
Аудио #01: 48 kHz, AC3, 5.1, 384 Kbps | iTunes | RUS |
Аудио #02: 48 kHz, AC3, 5.1, 640 Kbps | Оригинал | ENG |
скриншот  скриншот  скриншот  скриншот  скриншот  

General
Unique ID : 263318639248280522458292004746914148279 (0xC6195341E74665B7523A56212FB3AFB7)
Complete name : E:Video111Message.Man.2018.BDRip.1080p.seleZen.mkv
Format : Matroska
Format version : Version 4
File size : 7.15 GiB
Duration : 1 h 30 min
Overall bit rate : 11.3 Mb/s
Movie name : Message Man 2018 from селезень
Encoded date : UTC 2020-04-20 17:58:14
Writing application : mkvmerge v40.0.0 ('Old Town Road + Pony') 64-bit
Writing library : libebml v1.3.9 + libmatroska v1.5.2

Video
ID : 1
Format : AVC
Format/Info : Advanced Video Codec
Format profile : High@L4.1
Format settings : CABAC / 5 Ref Frames
Format settings, CABAC : Yes
Format settings, Reference : 5 frames
Codec ID : V_MPEG4/ISO/AVC
Duration : 1 h 30 min
Bit rate : 10.3 Mb/s
Width : 1 920 pixels
Height : 802 pixels
Display aspect ratio : 2.40:1
Frame rate mode : Constant
Frame rate : 24.000 FPS
Color space : YUV
Chroma subsampling : 4:2:0
Bit depth : 8 bits
Scan type : Progressive
Bits/(Pixel*Frame) : 0.279
Stream size : 6.50 GiB (91%)
Title : Encoded by seleZen
Writing library : x264 core 142 r2431+42 c69a006 tMod [8-bit@all X86_64]
Encoding settings : cabac=1 / ref=5 / deblock=1:-2:-2 / analyse=0x3:0x133 / me=umh / subme=10 / psy=1 / fade_compensate=0.00 / psy_rd=1.00:0.00 / mixed_ref=1 / me_range=32 / chroma_me=1 / trellis=2 / 8x8dct=1 / cqm=0 / deadzone=21,11 / fast_pskip=0 / chroma_qp_offset=-2 / threads=24 / lookahead_threads=4 / sliced_threads=0 / nr=0 / decimate=0 / interlaced=0 / bluray_compat=0 / constrained_intra=0 / fgo=0 / bframes=8 / b_pyramid=2 / b_adapt=2 / b_bias=0 / direct=3 / weightb=1 / open_gop=0 / weightp=2 / keyint=240 / keyint_min=24 / scenecut=40 / intra_refresh=0 / rc_lookahead=50 / rc=2pass / mbtree=0 / bitrate=10300 / ratetol=1.0 / qcomp=0.60 / qpmin=0:0:0 / qpmax=51:51:51 / qpstep=4 / cplxblur=20.0 / qblur=0.5 / vbv_maxrate=50000 / vbv_bufsize=62500 / nal_hrd=none / filler=0 / ip_ratio=1.40 / pb_ratio=1.30 / aq=3:0.80 / aq-sensitivity=10.00 / aq-factor=1.00:1.00:1.00 / aq2=0 / aq3=0
Language : English
Default : Yes
Forced : No

Audio #1
ID : 2
Format : AC-3
Format/Info : Audio Coding 3
Commercial name : Dolby Digital
Codec ID : A_AC3
Duration : 1 h 30 min
Bit rate mode : Constant
Bit rate : 384 kb/s
Channel(s) : 6 channels
Channel layout : L R C LFE Ls Rs
Sampling rate : 48.0 kHz
Frame rate : 31.250 FPS (1536 SPF)
Compression mode : Lossy
Stream size : 248 MiB (3%)
Title : iTunes
Language : Russian
Service kind : Complete Main
Default : Yes
Forced : Yes

Audio #2
ID : 3
Format : AC-3
Format/Info : Audio Coding 3
Commercial name : Dolby Digital
Codec ID : A_AC3
Duration : 1 h 30 min
Bit rate mode : Constant
Bit rate : 640 kb/s
Channel(s) : 6 channels
Channel layout : L R C LFE Ls Rs
Sampling rate : 48.0 kHz
Frame rate : 31.250 FPS (1536 SPF)
Compression mode : Lossy
Stream size : 414 MiB (6%)
Title : Original
Language : English
Service kind : Complete Main
Default : No
Forced : No

Text
ID : 4
Format : UTF-8
Codec ID : S_TEXT/UTF8
Codec ID/Info : UTF-8 Plain Text
Duration : 1 h 23 min
Bit rate : 21 b/s
Count of elements : 602
Stream size : 13.2 KiB (0%)
Title : Full
Language : English
Default : No
Forced : No

Menu
00:00:00.000 : en:Chapter 01
00:03:10.375 : en:Chapter 02
00:14:35.458 : en:Chapter 03
00:25:13.375 : en:Chapter 04
00:36:17.500 : en:Chapter 05
00:42:26.250 : en:Chapter 06
00:47:28.833 : en:Chapter 07
00:53:59.125 : en:Chapter 08
00:59:51.708 : en:Chapter 09
01:10:17.166 : en:Chapter 10
01:17:01.583 : en:Chapter 11
01:26:25.583 : en:Chapter 12

pb.wtf



Скачать Мститель через торрент https://i111.fastpic.ru/big/2020/0420/0c/7d70a823a4da265a0e1044dcd5cfab0c.jpg Скачать фильм Мститель через торрент бесплантно в хорошем качестве Описание: Приняв решение покончить с криминальным прошлым, бывший наемный убийца оседает вблизи побережья Индонезии, используя в качестве ... 8.8 10 10
Торрент: Зарегистрирован [2020-04-20 19:15] · скачан: 124 раз
Статус: √ проверено
Размер: 7.15 GB
Как cкачать? Как скачать Мститель через торрент | qTorrent

% Раздел Тема Автор DL S | L
Фильмы 2018 [DVDrip, WEB-DLRip, HDrip] (DUB, MVO) [ 1.42 GB ] Посыльный / Мститель / Message Man [2018 BDRip] - Twi7ter Скачать
11 | 0
Фильмы 2018 [DVDrip, WEB-DLRip, HDrip] (DUB, MVO) [ 1.46 GB ] Мститель / Посыльный / Message Man [2018 BDRip] bober100 Скачать
4 | 0
Фильмы (WEB-DL 720p, 1080p) [ 3.8 GB ] Мститель / Посыльный / Message Man [2018 BDRip 720p] bober100 Скачать
1 | 0

28-11-2019 20:33  

Отключить всю рекламу на сайте

    Дорогой пользователь! Огромная просьба, поблагодарите релизера, оцените раздачу и оставьте свои комментарий, если Вы скачали Мститель через торрент бесплатно! Внесите свою лепту в развитие PiratBit!
    Комментировать посты могут только пользователи прошедшие не сложную регистрацию
    Показать сообщения:    

    Мститель через торрент
    Скачать бесплатно Мститель
    Мститель скачать торрент
    Мститель смотреть онлайн
    Cкачать фильм Мститель бесплатно
    Мститель скачать торрент в хорошем качестве
    Мститель смотреть онлайн бесплатно в хорошем качестве


    Вы не можете начинать темы
    Вы не можете отвечать на сообщения
    Вы не можете редактировать свои сообщения
    Вы не можете удалять свои сообщения
    Вы не можете голосовать в опросах
    Вы не можете прикреплять файлы к сообщениям
    Вы можете скачивать файлы