Ссылка на приватное зеркало всего за 1$. Внимание количество ограничено!!!

iTunes

1+1

iTunes

мы

WEB-DL

1

iTunes

Чернобыль

iTunes

Ральф против интернета

Лицензия

ПШазам

Лицензия

Оно 2

Лицензия

30
pack

Вам бонус

ВАЖНО

!!Акция!!

Alien_RageХит недели

RePack

Resident Evil 21

ИГРА 18+

pack

RePack

jed

!!Акция!!

Alien_Rage

RePack

fifa19

RePack

Assassins Creed: Odyssey

RePack

NEED FOR SPEED™ PAYBACK

3 сезон

9 сезон

Бесстыжие 9 сезон

Все сериалы

все сериалы на PB.wtf

RePack

FAR CRY 5
Ребята, катастрофически не хватает 1900р. для оплаты серверов за Октябрь (всвязи с блокировками трафик упал в 3 раза), 1-2р., выручайте.
  

Присягнувшая тьме / The Convent (Пол Хайет) [2018, Ужасы, история, BDRip-AVC] DUB [iTunes] +MVO [HDrezka Studio] pb.wtf

Присягнувшая тьме через торрент pb.wtf

Раздают: 1 [ 0 KB/s ]
Размер: 1.62 GB | Добавлен: 1 мес. 7 д. назад | Торрент скачан:43 раза
Скачать  

06-11-2019 20:56 Присягнувшая тьме Скачать торрент  

Присягнувшая тьме / The Convent«Отпусти грехи наши»
Год выпуска: 2018
Страна: Великобритания
Жанр: Ужасы, история
Продолжительность: 01:20:55
Перевод:

#1: Дублированный | iTunes
#2: Профессиональный (многоголосый) | HDRezka studio

Субтитры: Английские (полные, SDH)

Режиссер: Пол Хайет

rating

В ролях: Майкл Айронсайд, Рози Дэй, Клер Хиггинс, Ханна Артертон, Дилан Гвин, Киаран МакМенамин, Аня Марсон, Фредди Картер, Петра Брайант, Кэти Шеридан

Описание: Действие разворачивается в семнадцатом веке вокруг Персефоны — девушки, которую обвинили в колдовстве. Несчастной грозит смерть на костре, однако в дело вмешивается загадочная преподобная мать и предлагает ей убежище в отдаленном монастыре, где падшие женщины получают шанс на новую жизнь. Мать и другие сестры посвятили себя служению Господу и поиску искупления, но по прибытии в монастырь Персефону начинают мучить кошмары, а спустя некоторое время она понимает, что её ждет не спасение, а настоящее сражение за свою душу...

Качество: BDRip-AVC
Формат: MKV

Видео: 1024x428 (2.40:1), 24,000 fps, x264 ~1 835 kbps avg, 0.174 bit/pixel
Аудио #1: 48 kHz, AC3 Dolby Digital, 3/2 (L,C,R,l,r) + LFE ch, ~384.00 kbps avg | RUS (iTunes)
Аудио #2: 48 kHz, AC3 Dolby Digital, 2 (L,R), ~192.00 kbps avg | RUS (HDRezka Studio)
Аудио #3: 48 kHz, AC3 Dolby Digital, 3/2 (L,C,R,l,r) + LFE ch, ~448.00 kbps avg | ENG
скриншот  скриншот  скриншот  скриншот  скриншот  

Общее
Уникальный идентификатор : 10378349840095742934502532681883450270 (0x7CECC27316403722121698D0147FB9E)
Полное имя : F:OlLanDGroupThe.Convent.2018.BDRip(AVC).OlLanDGroup.mkv
Формат : Matroska
Версия формата : Version 4 / Version 2
Размер файла : 1,62 Гбайт
Продолжительность : 1 ч. 20 м.
Общий поток : 2861 Кбит/сек
Название фильма : The.Convent.2018 #TorpedoUK#
Дата кодирования : UTC 2019-11-06 19:33:55
Программа кодирования : mkvmerge v29.0.0 ('Like It Or Not') 64-bit
Библиотека кодирования : libebml v1.3.6 + libmatroska v1.4.9

Видео
Идентификатор : 1
Формат : AVC
Формат/Информация : Advanced Video Codec
Профиль формата : High@L4.1
Параметр CABAC формата : Да
Параметр ReFrames формата : 10 кадров
Идентификатор кодека : V_MPEG4/ISO/AVC
Продолжительность : 1 ч. 20 м.
Битрейт : 1835 Кбит/сек
Ширина : 1024 пикселя
Высота : 428 пикселей
Соотношение сторон : 2,40:1
Режим частоты кадров : Постоянный
Частота кадров : 24,000 кадра/сек
Цветовое пространство : YUV
Субдискретизация насыщенности : 4:2:0
Битовая глубина : 8 бит
Тип развёртки : Прогрессивная
Бит/(Пиксели*Кадры) : 0.174
Размер потока : 1,04 Гбайт (64%)
Библиотека кодирования : x264 core 146 r2538 121396c
Настройки программы : cabac=1 / ref=10 / deblock=1:-3:-3 / analyse=0x3:0x113 / me=umh / subme=11 / psy=1 / psy_rd=0.97:0.05 / mixed_ref=1 / me_range=48 / chroma_me=1 / trellis=2 / 8x8dct=1 / cqm=0 / deadzone=21,11 / fast_pskip=1 / chroma_qp_offset=-6 / threads=6 / lookahead_threads=1 / sliced_threads=0 / nr=0 / decimate=1 / interlaced=0 / bluray_compat=0 / constrained_intra=0 / bframes=11 / b_pyramid=2 / b_adapt=2 / b_bias=0 / direct=3 / weightb=1 / open_gop=0 / weightp=2 / keyint=240 / keyint_min=24 / scenecut=40 / intra_refresh=0 / rc_lookahead=40 / rc=2pass / mbtree=0 / bitrate=1835 / ratetol=1.0 / qcomp=0.60 / qpmin=0 / qpmax=69 / qpstep=4 / cplxblur=20.0 / qblur=0.5 / vbv_maxrate=50000 / vbv_bufsize=62500 / nal_hrd=none / filler=0 / ip_ratio=1.40 / pb_ratio=1.30 / aq=1:1.00
Язык : English
Default : Да
Forced : Нет

Аудио #1
Идентификатор : 2
Формат : AC-3
Формат/Информация : Audio Coding 3
Расширение режима : CM (complete main)
Параметр Endianness формата : Big
Идентификатор кодека : A_AC3
Продолжительность : 1 ч. 20 м.
Вид битрейта : Постоянный
Битрейт : 384 Кбит/сек
Каналы : 6 каналов
Расположение каналов : Front: L C R, Side: L R, LFE
Частота : 48,0 КГц
Частота кадров : 31,250 кадров/сек (1536 spf)
Битовая глубина : 16 бит
Метод сжатия : С потерями
Размер потока : 222 Мбайт (13%)
Заголовок : DUB [iTunes]
Язык : Russian
Default : Да
Forced : Нет

Аудио #2
Идентификатор : 3
Формат : AC-3
Формат/Информация : Audio Coding 3
Расширение режима : CM (complete main)
Параметр Endianness формата : Big
Идентификатор кодека : A_AC3
Продолжительность : 1 ч. 20 м.
Вид битрейта : Постоянный
Битрейт : 192 Кбит/сек
Каналы : 2 канала
Расположение каналов : Front: L R
Частота : 48,0 КГц
Частота кадров : 31,250 кадров/сек (1536 spf)
Битовая глубина : 16 бит
Метод сжатия : С потерями
Размер потока : 111 Мбайт (7%)
Заголовок : MVO [HDRezka Studio]
Язык : Russian
Default : Нет
Forced : Нет

Аудио #3
Идентификатор : 4
Формат : AC-3
Формат/Информация : Audio Coding 3
Расширение режима : CM (complete main)
Параметр Endianness формата : Big
Идентификатор кодека : A_AC3
Продолжительность : 1 ч. 20 м.
Вид битрейта : Постоянный
Битрейт : 448 Кбит/сек
Каналы : 6 каналов
Расположение каналов : Front: L C R, Side: L R, LFE
Частота : 48,0 КГц
Частота кадров : 31,250 кадров/сек (1536 spf)
Битовая глубина : 16 бит
Метод сжатия : С потерями
Размер потока : 259 Мбайт (16%)
Заголовок : [Original]
Язык : English
Default : Нет
Forced : Нет

Текст #1
Идентификатор : 5
Формат : UTF-8
Идентификатор кодека : S_TEXT/UTF8
Идентификатор кодека/Информация : UTF-8 Plain Text
Продолжительность : 1 ч. 14 м.
Битрейт : 43 бит/сек
Count of elements : 899
Размер потока : 23,5 Кбайт (0%)
Заголовок : Full
Язык : English
Default : Нет
Forced : Нет

Текст #2
Идентификатор : 6
Формат : UTF-8
Идентификатор кодека : S_TEXT/UTF8
Идентификатор кодека/Информация : UTF-8 Plain Text
Продолжительность : 1 ч. 20 м.
Битрейт : 54 бит/сек
Count of elements : 1282
Размер потока : 31,9 Кбайт (0%)
Заголовок : SDH
Язык : English
Default : Нет
Forced : Нет

Меню
00:00:00.000 : en:Chapter 01
00:03:23.625 : en:Chapter 02
00:06:46.250 : en:Chapter 03
00:10:47.208 : en:Chapter 04
00:18:16.458 : en:Chapter 05
00:23:40.208 : en:Chapter 06
00:30:33.666 : en:Chapter 07
00:35:41.125 : en:Chapter 08
00:40:23.458 : en:Chapter 09
00:45:32.250 : en:Chapter 10
00:52:03.125 : en:Chapter 11
00:55:23.041 : en:Chapter 12
01:00:38.458 : en:Chapter 13
01:06:31.541 : en:Chapter 14
01:11:43.583 : en:Chapter 15
01:16:52.041 : en:Chapter 16

pb.wtf



Скачать Присягнувшая тьме через торрент https://a.radikal.ru/a02/1911/ae/b3378e592677.png Скачать фильм Присягнувшая тьме через торрент бесплантно в хорошем качестве Описание: Действие разворачивается в семнадцатом веке вокруг Персефоны — девушки, которую обвинили в колдовстве. Несчастной грозит смерть ... 10 10 5
Торрент: Зарегистрирован [2019-11-06 21:03] · скачан: 43 раз
Статус: √ проверено
Размер: 1.62 GB
Как cкачать? Как скачать Присягнувшая тьме через торрент | qTorrent

% Раздел Тема Автор DL S | L
Фильмы [HD 720p, 1080p] (Хороший звук DUB, MVO) [ 6.3 GB ] Присягнувшая тьме / The Convent [2018 история BDRip 1080p] +MVO [HDrezka Studio] bober100 Скачать
1 | 0
Фильмы 2018 [DVDrip, WEB-DLRip, HDrip] (DUB, MVO) [ 1.42 GB ] Присягнувшая тьме / The Convent [2018 BDRip] - Twi7ter Скачать
12 | 3
Фильмы 2018 [DVDrip, WEB-DLRip, HDrip] (DUB, MVO) [ 1.45 GB ] Присягнувшая тьме / The Convent [2018 история HDRip ] PsYcho Скачать
4 | 0
Фильмы 2018 [DVDrip, WEB-DLRip, HDrip] (DUB, MVO) [ 745 MB ] Присягнувшая тьме / The Convent [2018 BDRip] - OlLanDGroup Skandar2019 Скачать
3 | 0
Фильмы [HD 720p, 1080p] (Хороший звук DUB, MVO) [ 3.46 GB ] Присягнувшая тьме / The Convent [2018 история BDRip 720p] +MVO [HDrezka Studio] bober100 Скачать
6 | 0
Фильмы 2018 [DVDrip, WEB-DLRip, HDrip] (DUB, MVO) [ 745 MB ] Присягнувшая тьме / The Convent [2018 BDRip-AVC] - OlLanDGroup Skandar2019 Скачать
4 | 0

28-11-2019 20:33  

Отключить всю рекламу на сайте

    Дорогой пользователь! Огромная просьба, поблагодарите релизера, оцените раздачу и оставьте свои комментарий, если Вы скачали Присягнувшая тьме через торрент бесплатно! Внесите свою лепту в развитие PiratBit!
    Комментировать посты могут только пользователи прошедшие не сложную регистрацию
    Показать сообщения:    

    Присягнувшая тьме через торрент
    Скачать бесплатно Присягнувшая тьме
    Присягнувшая тьме скачать торрент
    Присягнувшая тьме смотреть онлайн
    Cкачать фильм Присягнувшая тьме бесплатно
    Присягнувшая тьме скачать торрент в хорошем качестве
    Присягнувшая тьме смотреть онлайн бесплатно в хорошем качестве


    Вы не можете начинать темы
    Вы не можете отвечать на сообщения
    Вы не можете редактировать свои сообщения
    Вы не можете удалять свои сообщения
    Вы не можете голосовать в опросах
    Вы не можете прикреплять файлы к сообщениям
    Вы можете скачивать файлы