Ссылка на приватное зеркало нашего сайта всего за 1$. Внимание количество ограничено!!!

2 сезон

iTunes

1 сезон

1

2 сезон

2 сезон

iTunes

1 сезон

RePack

30

Новинка

ВАЖНО

ИГРА 18+

pack

RePack

MK11
pack

Забери бонус

RePack

jed

!!Акция!!

Alien_Rage

RePack

fifa19

RePack

Assassins Creed: Odyssey

RePack

NEED FOR SPEED™ PAYBACK

4 сезон

9 сезон

Бесстыжие 9 сезон

Все сериалы

все сериалы на PB.wtf

RePack

FAR CRY 5
  

Игра Ганнибала / Nomis / Night Hunter (Дэвид Рэймонд) [2018, Боевик, триллер, BD Remux 1080p] DUB [iTunes] +MVO [HDrezka Studio] pb.wtf

Игра Ганнибала через торрент pb.wtf

Размер: 21.17 GB | Добавлен: 1 год назад | Торрент скачан:48 раз
Скачать  

06-11-2019 21:55 Игра Ганнибала Скачать торрент  

Игра Ганнибала / Nomis / Night Hunter
Год выпуска: 2018
Страна: Канада, США
Студия: Arcola Entertainment, Arise Pictures, Buffalo Gal Pictures
Жанр: Боевик, триллер
Продолжительность: 01:38:58
Перевод:

#1: Дублированный | iTunes
#2: Профессиональный (многоголосый) | HDRezka studio

Субтитры: Русские (Forced), английские

Режиссер: Дэвид Рэймонд

rating

В ролях: Бен Кингсли, Стэнли Туччи, Александра Даддарио, Генри Кавилл, Минка Келли, Натан Филлион, Сара Томпсон, Элиана Джонс, Брендан Флетчер, Эмма Тремблей

Описание: Выслеживая неуловимого серийного убийцу, виновного в похищении и изнасиловании нескольких девушек, закаленный в боях полицейский Маршалл встречает бывшего судью Купера и юную Лару, которые используют против насильников собственные методы правосудия. Когда Лару похищает разыскиваемый Маршаллом преступник, которым оказывается психически неуравновешенный Саймон, ему удается выследить и арестовать его. Коллега героя Рейчел считает, что в теле подозреваемого уживается сразу несколько личностей, одна из которых затеяла опасную игру с полицейскими. Ее догадка подтверждается после того, как происходит серия новых преступлений, а все улики указывают на находящегося под стражей Саймона…

Качество: BD Remux 1080p
Формат: MKV

Видео: MPEG-4 AVC, 1920x1080, 26.1 Mbit/s, 23.976 fps
Аудио #01: 48 kHz, AC3, 5.1, 384 Kbps | iTunes | RUS |
Аудио #02: 48 kHz, AC3, 2.0, 192 Kbps | HDRezka Studio | RUS |
Аудио #03: 48 kHz, TrueHD, 5.1, 3191 Kbps | Оригинал | ENG |
Аудио #04: 48 kHz, AC3, 5.1, 640 Kbps | Оригинал | ENG |
скриншот  скриншот  скриншот  скриншот  скриншот  

General
Unique ID : 287737457243909055603713956736888955151 (0xD87837EFCC7B4D86E5EDAE07D92F610F)
Complete name : D:Video111Nomis.2018.BDREMUX.1080p.seleZen.mkv
Format : Matroska
Format version : Version 4
File size : 21.2 GiB
Duration : 1 h 38 min
Overall bit rate mode : Variable
Overall bit rate : 30.6 Mb/s
Movie name : Nomis 2018 from селезень
Encoded date : UTC 2019-11-06 21:06:38
Writing application : mkvmerge v22.0.0 ('At The End Of The World') 64-bit
Writing library : libebml v1.3.5 + libmatroska v1.4.8

Video
ID : 1
Format : AVC
Format/Info : Advanced Video Codec
Format profile : High@L4.1
Format settings : CABAC / 4 Ref Frames
Format settings, CABAC : Yes
Format settings, Reference : 4 frames
Codec ID : V_MPEG4/ISO/AVC
Duration : 1 h 38 min
Bit rate mode : Variable
Bit rate : 26.1 Mb/s
Maximum bit rate : 35.0 Mb/s
Width : 1 920 pixels
Height : 1 080 pixels
Display aspect ratio : 16:9
Frame rate mode : Constant
Frame rate : 23.976 (24000/1001) FPS
Standard : NTSC
Color space : YUV
Chroma subsampling : 4:2:0
Bit depth : 8 bits
Scan type : Progressive
Bits/(Pixel*Frame) : 0.526
Stream size : 18.1 GiB (85%)
Language : English
Default : Yes
Forced : No
Color range : Limited
Color primaries : BT.709
Transfer characteristics : BT.709
Matrix coefficients : BT.709

Audio #1
ID : 2
Format : AC-3
Format/Info : Audio Coding 3
Commercial name : Dolby Digital
Codec ID : A_AC3
Duration : 1 h 38 min
Bit rate mode : Constant
Bit rate : 384 kb/s
Channel(s) : 6 channels
Channel layout : L R C LFE Ls Rs
Sampling rate : 48.0 kHz
Frame rate : 31.250 FPS (1536 SPF)
Bit depth : 16 bits
Compression mode : Lossy
Stream size : 272 MiB (1%)
Title : Dub [iTunes]
Language : Russian
Service kind : Complete Main
Default : Yes
Forced : Yes

Audio #2
ID : 3
Format : AC-3
Format/Info : Audio Coding 3
Commercial name : Dolby Digital
Codec ID : A_AC3
Duration : 1 h 38 min
Bit rate mode : Constant
Bit rate : 192 kb/s
Channel(s) : 2 channels
Channel layout : L R
Sampling rate : 48.0 kHz
Frame rate : 31.250 FPS (1536 SPF)
Bit depth : 16 bits
Compression mode : Lossy
Stream size : 136 MiB (1%)
Title : MVO [HDRezka Studio]
Language : Russian
Service kind : Complete Main
Default : No
Forced : No

Audio #3
ID : 4
Format : MLP FBA
Format/Info : Meridian Lossless Packing FBA
Commercial name : Dolby TrueHD
Codec ID : A_TRUEHD
Duration : 1 h 38 min
Bit rate mode : Variable
Bit rate : 3 191 kb/s
Maximum bit rate : 5 043 kb/s
Channel(s) : 6 channels
Channel layout : L R C LFE Ls Rs
Sampling rate : 48.0 kHz
Frame rate : 1 200.000 FPS (40 SPF)
Compression mode : Lossless
Stream size : 2.21 GiB (10%)
Title : Original
Language : English
Default : No
Forced : No

Audio #4
ID : 5
Format : AC-3
Format/Info : Audio Coding 3
Commercial name : Dolby Digital
Codec ID : A_AC3
Duration : 1 h 38 min
Bit rate mode : Constant
Bit rate : 640 kb/s
Channel(s) : 6 channels
Channel layout : L R C LFE Ls Rs
Sampling rate : 48.0 kHz
Frame rate : 31.250 FPS (1536 SPF)
Bit depth : 16 bits
Compression mode : Lossy
Stream size : 453 MiB (2%)
Language : English
Service kind : Complete Main
Default : No
Forced : No

Text #1
ID : 6
Format : UTF-8
Codec ID : S_TEXT/UTF8
Codec ID/Info : UTF-8 Plain Text
Duration : 1 h 1 min
Bit rate : 1 b/s
Count of elements : 12
Stream size : 490 Bytes (0%)
Title : Forced
Language : Russian
Default : Yes
Forced : Yes

Text #2
ID : 7
Format : UTF-8
Codec ID : S_TEXT/UTF8
Codec ID/Info : UTF-8 Plain Text
Duration : 1 h 32 min
Bit rate : 43 b/s
Count of elements : 1100
Stream size : 29.4 KiB (0%)
Language : English
Default : No
Forced : No

Menu
00:00:00.000 : :Chapter 01
00:13:20.299 : :Chapter 02
00:25:10.884 : :Chapter 03
00:40:01.107 : :Chapter 04
00:53:13.315 : :Chapter 05
01:08:14.507 : :Chapter 06
01:23:00.142 : :Chapter 07
01:33:35.652 : :Chapter 08

pb.wtf



Скачать Игра Ганнибала через торрент https://a.radikal.ru/a20/1911/60/74e9718fac20.jpg Скачать фильм Игра Ганнибала через торрент бесплантно в хорошем качестве Описание: Выслеживая неуловимого серийного убийцу, виновного в похищении и изнасиловании нескольких девушек, закаленный в боях полицейский ... 9.8 10 5
Торрент: Зарегистрирован [2019-11-06 21:55] · скачан: 48 раз
Статус: √ проверено
Размер: 21.17 GB
Как cкачать? Как скачать Игра Ганнибала через торрент | qTorrent

% Раздел Тема Автор DL S | L
Фильмы 2018 [DVDrip, WEB-DLRip, HDrip] (DUB, MVO) [ 1.42 GB ] Игра Ганнибала / Nomis / Night Hunter [2018 BDRip] - Twi7ter Скачать
27 | 0
Фильмы 2018 [DVDrip, WEB-DLRip, HDrip] (DUB, MVO) [ 743 MB ] Игра Ганнибала / Nomis / Night Hunter [2018 BDRip-AVC] - OlLanDGroup Skandar2019 Скачать
1 | 0
Фильмы 2018 [DVDrip, WEB-DLRip, HDrip] (DUB, MVO) [ 1.96 GB ] Игра Ганнибала / Nomis / Night Hunter [2018 BDRip-AVC] +MVO [HDrezka Studio] bober100 Скачать
2 | 0
Фильмы 2018 [DVDrip, WEB-DLRip, HDrip] (DUB, MVO) [ 1.42 GB ] Игра Ганнибала / Nomis / Night Hunter [2018 BDRip] bober100 Скачать
1 | 0
Фильмы [HD 720p, 1080p] (Хороший звук DUB, MVO) [ 8.17 GB ] Игра Ганнибала / Nomis / Night Hunter [2018 BDRip 1080p] +MVO [HDrezka Studio] bober100 Скачать
2 | 0
Фильмы [HD 720p, 1080p] (Хороший звук DUB, MVO) [ 4.04 GB ] Игра Ганнибала / Nomis / Night Hunter [2018 BDRip 720p] +MVO [HDrezka Studio] bober100 Скачать
2 | 0
T Фильмы 2018 [DVDrip, WEB-DLRip, HDrip] (DUB, MVO) [ 1.36 GB ] Игра Ганнибала / Night Hunter / Nomis [2018 WEB-DLRip] MVO [HDRezka Studio] - ExKinoRay Enigma2010 Скачать
111 | 3

28-11-2019 20:33  

Отключить всю рекламу на сайте

    Дорогой пользователь! Огромная просьба, поблагодарите релизера, оцените раздачу и оставьте свои комментарий, если Вы скачали Игра Ганнибала через торрент бесплатно! Внесите свою лепту в развитие PiratBit!
    Комментировать посты могут только пользователи прошедшие не сложную регистрацию
    Показать сообщения:    

    Игра Ганнибала через торрент
    Скачать бесплатно Игра Ганнибала
    Игра Ганнибала скачать торрент
    Игра Ганнибала смотреть онлайн
    Cкачать фильм Игра Ганнибала бесплатно
    Игра Ганнибала скачать торрент в хорошем качестве
    Игра Ганнибала смотреть онлайн бесплатно в хорошем качестве


    Вы не можете начинать темы
    Вы не можете отвечать на сообщения
    Вы не можете редактировать свои сообщения
    Вы не можете удалять свои сообщения
    Вы не можете голосовать в опросах
    Вы не можете прикреплять файлы к сообщениям
    Вы можете скачивать файлы