новый адрес пиратбит piratbit
Мега распродажа FORZA HORIZON 4 ULTIMATE+ВСЕ DLC+ОНЛАЙН всего за 499р. 349 руб. (супер цена). Внимание количество ограничено!!!

iTunes

1+1

iTunes

мы

iTunes

1

iTunes

Чернобыль

iTunes

Ральф против интернета

Лицензия

ПШазам

Лицензия

Игра престолов

Лицензия

30
pack

ВАЖНО

!!Акция!!

Alien_RageХит недели

RePack

Resident Evil 21

ИГРА 18+

pack

RePack

Metro:Exodus

!!Акция!!

Alien_Rage

RePack

fifa19

RePack

Assassins Creed: Odyssey

RePack

NEED FOR SPEED™ PAYBACK

3 сезон

9 сезон

Бесстыжие 9 сезон

Все сериалы

все сериалы на PB.wtf

RePack

FAR CRY 5
Ребята, катастрофически не хватает 1900р. для оплаты серверов за Октябрь (всвязи с блокировками трафик упал в 3 раза), 1-2р., выручайте.
  

Игра с огнем / Burn (Майк Ган) [2019, Триллер, WEB-DLRip-AVC] Dub [iTunes] - ExKinoRay pb.wtf

Игра с огнем через торрент pb.wtf

Раздают: 104 [ 334 KB/s ] Качают: 7 [ 417 KB/s ]
Размер: 1.56 GB | Добавлен: 6 д. назад | Торрент скачан:117 раз
Скачать  

06-11-2019 22:07 Игра с огнем Скачать торрент  

Информация о фильме
Название: Игра с огнем
Оригинальное название: Burn
Год выхода: 2019
Жанр: Триллер
Режиссер: Майк Ган
В ролях: Тильда Кобэм-Херви, Джош Хатчерсон, Сьюки Уотерхаус, Гарри Шам мл., Шайло Фернандес, Джим Девоти, Джон Д. Хикман, Стив Гарфанти, Винтер-Ли Холланд, Уэйн Пайл, Кит Леонард, Анхель Валле мл.



Описание: История развернется вокруг работницы заправки Мелинды, которая страдает от одиночества и завидует своей более успешной коллеге Шейле. Когда мелкий преступник Билли врывается на заправку в надежде украсть немного наличных, Мелинда видит в этом отличный шанс избавиться от опостылевшей напарницы.

Страна: США
Студия: Yale Productions, Hopscotch Pictures, Particular Crowd
Продолжительность: 01:28:09
Перевод: Дублированный | iTunes

Формат: MKV
Качество: WEB-DLRip-AVC
Видео: MPEG-4 AVC, 1024x540 (1.896:1), 23.976 fps, 1761 Kbps, 0.133 bit/pixel
Аудио #01: 48 kHz, AC3, 5.1, 384 Kbps | iTunes | RUS |
Аудио #02: 48 kHz, AC3, 5.1, 384 Kbps | Оригинал | ENG |
Субтитры: Русские (Forced, full [Enigma]), английские
General
Unique ID : 255157088852563121321364281770085196437 (0xBFF577C15F6678D780F7F20751182295)
Complete name : F:\Burn.2019.WEB-DL.AVC.ExKinoRay.mkv
Format : Matroska
Format version : Version 2
File size : 1.56 GiB
Duration : 1 h 28 min
Overall bit rate : 2 527 kb/s
Movie name : Burn 2019 from ExKinoRay
Encoded date : UTC 2019-11-06 21:31:53
Writing application : mkvmerge v5.6.0 ('Kenya Kane') built on May 27 2012 16:44:04
Writing library : libebml v1.2.3 + libmatroska v1.3.0

Video
ID : 1
Format : AVC
Format/Info : Advanced Video Codec
Format profile : High@L4.1
Format settings, CABAC : Yes
Format settings, ReFrames : 11 frames
Codec ID : V_MPEG4/ISO/AVC
Duration : 1 h 28 min
Bit rate : 1 761 kb/s
Width : 1 024 pixels
Height : 540 pixels
Display aspect ratio : 1.896
Frame rate mode : Constant
Frame rate : 23.976 (24000/1001) FPS
Original frame rate : 23.976 (23976/1000) FPS
Color space : YUV
Chroma subsampling : 4:2:0
Bit depth : 8 bits
Scan type : Progressive
Bits/(Pixel*Frame) : 0.133
Stream size : 1.05 GiB (68%)
Title : Enigma
Writing library : x264 core 152 r2851 ba24899
Encoding settings : cabac=1 / ref=11 / deblock=1:-2:-2 / analyse=0x3:0x113 / me=umh / subme=10 / psy=1 / psy_rd=1.05:0.15 / mixed_ref=1 / me_range=32 / chroma_me=1 / trellis=2 / 8x8dct=1 / cqm=0 / deadzone=21,11 / fast_pskip=0 / chroma_qp_offset=-3 / threads=12 / lookahead_threads=2 / sliced_threads=0 / nr=0 / decimate=0 / interlaced=0 / bluray_compat=0 / constrained_intra=0 / bframes=9 / b_pyramid=2 / b_adapt=2 / b_bias=0 / direct=3 / weightb=1 / open_gop=0 / weightp=2 / keyint=240 / keyint_min=23 / scenecut=40 / intra_refresh=0 / rc=2pass / mbtree=0 / bitrate=1761 / ratetol=1.0 / qcomp=0.60 / qpmin=0 / qpmax=51 / qpstep=4 / cplxblur=20.0 / qblur=0.5 / ip_ratio=1.40 / pb_ratio=1.30 / aq=1:1.00
Default : Yes
Forced : No
Color range : Limited
Color primaries : BT.709
Transfer characteristics : BT.709
Matrix coefficients : BT.709

Audio #1
ID : 2
Format : AC-3
Format/Info : Audio Coding 3
Mode extension : CM (complete main)
Format settings, Endianness : Big
Codec ID : A_AC3
Duration : 1 h 28 min
Bit rate mode : Constant
Bit rate : 384 kb/s
Channel(s) : 6 channels
Channel positions : Front: L C R, Side: L R, LFE
Sampling rate : 48.0 kHz
Frame rate : 31.250 FPS (1536 spf)
Compression mode : Lossy
Stream size : 242 MiB (15%)
Title : iTunes
Language : Russian
Default : Yes
Forced : No

Audio #2
ID : 3
Format : AC-3
Format/Info : Audio Coding 3
Mode extension : CM (complete main)
Format settings, Endianness : Big
Codec ID : A_AC3
Duration : 1 h 28 min
Bit rate mode : Constant
Bit rate : 384 kb/s
Channel(s) : 6 channels
Channel positions : Front: L C R, Side: L R, LFE
Sampling rate : 48.0 kHz
Frame rate : 31.250 FPS (1536 spf)
Compression mode : Lossy
Stream size : 242 MiB (15%)
Title : Original
Language : English
Default : No
Forced : No

Text #1
ID : 4
Format : UTF-8
Codec ID : S_TEXT/UTF8
Codec ID/Info : UTF-8 Plain Text
Title : forced
Language : Russian
Default : Yes
Forced : No

Text #2
ID : 5
Format : UTF-8
Codec ID : S_TEXT/UTF8
Codec ID/Info : UTF-8 Plain Text
Title : Full (Enigma)
Language : Russian
Default : No
Forced : No

Text #3
ID : 6
Format : UTF-8
Codec ID : S_TEXT/UTF8
Codec ID/Info : UTF-8 Plain Text
Language : English
Default : No
Forced : No

Menu
00:00:00.000 : en:Chapter 1
00:06:54.372 : en:Chapter 2
00:13:39.442 : en:Chapter 3
00:20:15.087 : en:Chapter 4
00:27:42.658 : en:Chapter 5
00:37:05.512 : en:Chapter 6
00:47:51.823 : en:Chapter 7
00:57:22.351 : en:Chapter 8
01:09:21.777 : en:Chapter 9
01:21:16.158 : en:Chapter 10


Релиз от:

Автор релиза: pb.wtf



Скачать Игра с огнем через торрент https://img15.lostpic.net/2019/11/07/df3433c8d6d14a7bf24c1428b5e4b567.jpg Скачать фильм Игра с огнем через торрент бесплантно в хорошем качестве Описание: История развернется вокруг работницы заправки Мелинды, которая страдает от одиночества и завидует своей более успешной коллеге ... 10 10 4
Info! Золотая раздача, скачанное не засчитывается.
Торрент: Зарегистрирован [2019-11-06 22:07] · скачан: 117 раз
Статус: √ проверено
Размер: 1.56 GB
Как cкачать? Как скачать Игра с огнем через торрент | qTorrent


>> Регистрируемся здесь <<






Отзывы и комментарии о схеме читаем и пишем здесь: ---> Отзывы и комментарии о схеме

Новые благодарочки в телеграм довольных пользователей:
скриншот   скриншот   скриншот   скриншот   скриншот
    Дорогой пользователь! Огромная просьба, поблагодарите релизера, оцените раздачу и оставьте свои комментарий, если Вы скачали Игра с огнем через торрент бесплатно! Внесите свою лепту в развитие PiratBit!
    Комментировать посты могут только пользователи прошедшие не сложную регистрацию
    Показать сообщения:    

    Игра с огнем через торрент
    Скачать бесплатно Игра с огнем
    Игра с огнем скачать торрент
    Игра с огнем смотреть онлайн
    Cкачать фильм Игра с огнем бесплатно
    Игра с огнем скачать торрент в хорошем качестве
    Игра с огнем смотреть онлайн бесплатно в хорошем качестве


    Вы не можете начинать темы
    Вы не можете отвечать на сообщения
    Вы не можете редактировать свои сообщения
    Вы не можете удалять свои сообщения
    Вы не можете голосовать в опросах
    Вы не можете прикреплять файлы к сообщениям
    Вы можете скачивать файлы