2 сезон

iTunes

MVO

1

2 сезон

iTunes

iTunes

1 сезон

RePack

30

Ultimate

ВАЖНО

ИГРА 18+

pack

RePack

MK11
pack

Легкие деньги

RePack

jed

RePack

fifa19

RePack

RDR2

RePack

NEED FOR SPEED™ PAYBACK

4 сезон

9 сезон

Бесстыжие 9 сезон

Все сериалы

все сериалы на PB.wtf

RePack

FAR CRY 5

Anonymous, доброе утро, мы не успеваем собрать деньги на оплату серверов за декабрь и январь, помогите нам пожалуйста в это трудное время. В качестве благодарности мы отключим Вам всю рекламу на сайте (укажите свой ник в строку Ваше имя)!

×
  
Magnet ссылка

Касл-Рок / Castle Rock / Сезон: 2 / Серии: 1-10 из 10 (Майкл Аппендаль, Грег Яйтанс, Ана Лили Амирпур) [2019, ужасы, фэнтези, триллер, мистика, драма, детектив, WEB-DL 720p] MVO [Novamedia] pb.wtf

Касл-Рок через торрент pb.wtf

Размер: 6.5 GB | Добавлен: 1 мес. 28 д. назад | Торрент скачан:6 раз
Скачать  

07-11-2019 08:03 Касл-Рок Скачать торрент  

Касл-Рок / Castle Rock Год выпуска: 2019
Страна: США
Жанр: ужасы, фэнтези, триллер, мистика, драма, детектив
Продолжительность: 01:00:00
Перевод: Профессиональный (многоголосый закадровый) | Novamedia
Субтитры: Русские (Forced, Full), английские (SDH)

Режиссёр: Майкл Аппендаль, Грег Яйтанс, Ана Лили Амирпур, Дэниэл Эттиэс, Эндрю Бернштейн, Кевин Хукс

В ролях: Лиззи Каплан, Андре Холлэнд, Мелани Лински, Билл Скарсгард, Джейн Леви, Сисси Спейсек, Баркхад Абди, Меттью Алан, Лиззи Каплан, Элси Фишер, Гаррет Хедлунд, Лайла Ализаде

Описание: Начальник тюрьмы Шоушенк совершает самоубийство, и после его смерти в закрытом крыле здания находят странного юношу. Никто не знает, кто это, а сам он называет только имя адвоката Генри Дивера, который вырос в Касл-Роке. Дивер возвращается в город, где когда-то трагически погиб его отец, и пытается выяснить историю загадочного заключенного.



Качество: WEB-DL 720p
Контейнер: MKV

Видео: MPEG-4 AVC, 1280x720 [16:9], 23.976 fps, ~ 1400 Kbps
Аудио 1: [Русский] AC3, 48 kHz, 2 ch, 192 Kbps
Аудио 2: [Английский] EAC3, 6 ch, 256 Кбит/с


Реклама: отсутствует
Релиз TeamHD - BenderBEST

• Релиз выполнен под спонсорством: zlodei24
• Запись, работа со звуком и субтитрами - BenderBEST.
Общее
Уникальный идентификатор : 204243376155860162371694223664123589239 (0x99A7D7E99866DB1D996ACCC659EDB277)
Полное имя : S:\Castle.Rock.720-1080p.HULU.WEB-DL.Rus.Eng_TeamHD\Castle.Rock.S02.720p.HULU.WEB-DL.Rus.Eng_TeamHD\Castle.Rock.S02E01.Let.the.River.Run.720p.HULU.WEB-DL.Rus.Eng_TeamHD.mkv
Формат : Matroska
Версия формата : Version 4 / Version 2
Размер файла : 802 Мбайт
Продолжительность : 1 ч. 0 м.
Общий поток : 1859 Кбит/сек
Название фильма : Castle Rock S02E01 - ReJliz TeamHD by BenderBEST
Дата кодирования : UTC 2019-11-06 19:28:48
Программа кодирования : mkvmerge v8.3.0 ('Over the Horizon') 64bit
Библиотека кодирования : libebml v1.3.1 + libmatroska v1.4.2

Видео
Идентификатор : 1
Формат : AVC
Формат/Информация : Advanced Video Codec
Профиль формата : High@L3.1
Параметр CABAC формата : Да
Параметр ReFrames формата : 5 кадров
Идентификатор кодека : V_MPEG4/ISO/AVC
Продолжительность : 1 ч. 0 м.
Битрейт : 1409 Кбит/сек
Ширина : 1280 пикселей
Высота : 720 пикселей
Соотношение сторон : 16:9
Режим частоты кадров : Постоянный
Частота кадров : 23,976 (24000/1001) кадра/сек
Цветовое пространство : YUV
Субдискретизация насыщенности : 4:2:0
Битовая глубина : 8 бит
Тип развёртки : Прогрессивная
Бит/(Пиксели*Кадры) : 0.064
Размер потока : 607 Мбайт (76%)
Язык : English
Default : Да
Forced : Да

Аудио #1
Идентификатор : 2
Формат : AC-3
Формат/Информация : Audio Coding 3
Расширение режима : CM (complete main)
Параметр Endianness формата : Big
Идентификатор кодека : A_AC3
Продолжительность : 1 ч. 0 м.
Вид битрейта : Постоянный
Битрейт : 192 Кбит/сек
Каналы : 2 канала
Расположение каналов : Front: L R
Частота : 48,0 КГц
Частота кадров : 31,250 кадров/сек (1536 spf)
Метод сжатия : С потерями
Размер потока : 82,8 Мбайт (10%)
Заголовок : AC3 2.0 @ 192 kbps - MVO, Novamedia
Язык : Russian
Default : Да
Forced : Да

Аудио #2
Идентификатор : 3
Формат : E-AC-3
Формат/Информация : Audio Coding 3
Параметр Endianness формата : Big
Идентификатор кодека : A_EAC3
Продолжительность : 1 ч. 0 м.
Вид битрейта : Постоянный
Битрейт : 256 Кбит/сек
Каналы : 6 каналов
Расположение каналов : Front: L C R, Side: L R, LFE
Частота : 48,0 КГц
Частота кадров : 187,500 кадров/сек (256 spf)
Метод сжатия : С потерями
Размер потока : 110 Мбайт (14%)
Заголовок : EAC3 5.1 @ 256 kbps
Язык : English
Default : Нет
Forced : Нет

Текст #1
Идентификатор : 4
Формат : UTF-8
Идентификатор кодека : S_TEXT/UTF8
Идентификатор кодека/Информация : UTF-8 Plain Text
Продолжительность : 55 м.
Битрейт : 12 бит/сек
Count of elements : 107
Размер потока : 5,26 Кбайт (0%)
Заголовок : Forced
Язык : Russian
Default : Да
Forced : Да

Текст #2
Идентификатор : 5
Формат : UTF-8
Идентификатор кодека : S_TEXT/UTF8
Идентификатор кодека/Информация : UTF-8 Plain Text
Продолжительность : 53 м.
Битрейт : 73 бит/сек
Count of elements : 572
Размер потока : 28,7 Кбайт (0%)
Заголовок : Full
Язык : Russian
Default : Нет
Forced : Нет

Текст #3
Идентификатор : 6
Формат : UTF-8
Идентификатор кодека : S_TEXT/UTF8
Идентификатор кодека/Информация : UTF-8 Plain Text
Продолжительность : 1 ч. 0 м.
Битрейт : 63 бит/сек
Count of elements : 980
Размер потока : 27,8 Кбайт (0%)
Заголовок : SDH
Язык : English
Default : Нет
Forced : Нет
Когда раздача ведётся путём добавления новых серий, при каждом добавлении создётся новый торрент. Чтобы начать докачку новой серии, пользователям необходимо сделать следующее:
(1) остановить скачивание,
(2) удалить старый торрент у себя из клиента (старые серии удалять не надо),
(3) скачать новый торрент и запустить его у себя в клиенте вместо старого, при этом указать клиенту путь в старую папку, куда и должно происходить скачивание новых серий.
Ваш клиент при этом должен произвести хеширование (проверку) старой папки (если не производит сам - помогите ему сделать это), и будет докачивать только те серии, которых у вас ещё нет. Старые серии при этом не удаляются, а продолжают раздаваться!
Eсли вы уже удалили старые серии, то предотвратить повторную закачку старых серий можно, отжав галочку в соответсвующих местах при запуске нового торрента. По возможности, желательно не удалять старые серии как можно дольше, чтобы релизёр не столько продолжал раздавать старые серии, а смог сконцентрироваться на новых.
pb.wtf



Скачать Касл-Рок через торрент https://img15.lostpic.net/2019/11/06/5df9ba96e9ff38ac672f37ebfe0d0f25.jpg Скачать фильм Касл-Рок через торрент бесплантно в хорошем качестве Описание: Начальник тюрьмы Шоушенк совершает самоубийство, и после его смерти в закрытом крыле здания находят странного юношу. Никто не ... 10 10 4
Торрент: Зарегистрирован [2020-11-17 08:26] · скачан: 6 раз
Статус: √ проверено
Размер: 6.5 GB
Как cкачать? Как скачать Касл-Рок через торрент | UTorrent

% Раздел Тема Автор DL S | L
Зарубежные сериалы [ 7.15 GB ] Касл-Рок / Castle Rock / Сезон: 2 / Серии: 1-10 из 10 [2019 WEB-DL 720p] MVO [TVShows] bober100 Скачать
1 | 0
Зарубежные сериалы [ 6.76 GB ] Касл-Рок / Castle Rock / Сезон: 2 / Серии: 1-10 из 10 [2019 WEB-DLRip] MVO [LostFilm] bober100 Скачать
1 | 0
Зарубежные сериалы [ 54.88 GB ] Касл-Рок / Castle Rock / Сезон: 2 / Серии: 1-10 из 10 [2019 UHD WEB-DL 2160p] 4xMVO [LostFilm AlexFilm TVShows Jaskier] bober100 Скачать
2 | 0
Зарубежные сериалы [ 10.83 GB ] Касл-Рок / Castle Rock / Сезон: 2 / Серии: 1-10 из 10 [2019 WEBRip 720p] 3xMVO [AlexFilm TVShows Jaskier] bober100 Скачать
1 | 0
Зарубежные сериалы [ 13.11 GB ] Касл-Рок / Castle Rock / Сезон: 2 / Серии: 1-10 из 10 [2019 WEBRip 1080p] MVO [Novamedia] bober100 Скачать
1 | 0
Зарубежные сериалы [ 13.76 GB ] Касл-Рок / Castle Rock / Сезон: 2 / Серии: 1-10 из 10 [2019 WEB-DL 1080p] MVO [TVShows] bober100 Скачать
2 | 0
Зарубежные сериалы [ 7.59 GB ] Касл-Рок / Castle Rock / Сезон: 2 / Серии: 1-10 из 10 [2019 WEB-DL 720p] MVO [Jaskier] bober100 Скачать
1 | 0

28-11-2019 20:33  

Отключить всю рекламу на сайте

    Дорогой пользователь! Огромная просьба, поблагодарите релизера, оцените раздачу и оставьте свои комментарий, если Вы скачали Касл-Рок через торрент бесплатно! Внесите свою лепту в развитие PiratBit!
    Комментировать посты могут только пользователи прошедшие не сложную регистрацию
    Показать сообщения:    

    Касл-Рок через торрент
    Скачать бесплатно Касл-Рок
    Касл-Рок скачать торрент
    Касл-Рок смотреть онлайн
    Cкачать фильм Касл-Рок бесплатно
    Касл-Рок скачать торрент в хорошем качестве
    Касл-Рок смотреть онлайн бесплатно в хорошем качестве


    Вы не можете начинать темы
    Вы не можете отвечать на сообщения
    Вы не можете редактировать свои сообщения
    Вы не можете удалять свои сообщения
    Вы не можете голосовать в опросах
    Вы не можете прикреплять файлы к сообщениям
    Вы можете скачивать файлы