Ссылка на приватное зеркало всего за 1$. Внимание количество ограничено!!!

OK

1+1

iTunes

мы

OK

1

WEB-DLRip

Джокер

Пифагор

Ведьмак / The Witcher сериал

Лицензия

ПШазам

ОК

Оно 2

iTunes

30
pack

Вам бонус

ВАЖНО

!!Акция!!

Alien_RageХит недели

RePack

Resident Evil 21

ИГРА 18+

pack

RePack

jed

!!Акция!!

Alien_Rage

RePack

fifa19

RePack

Assassins Creed: Odyssey

RePack

NEED FOR SPEED™ PAYBACK

4 сезон

9 сезон

Бесстыжие 9 сезон

Все сериалы

все сериалы на PB.wtf

RePack

FAR CRY 5
  

Солнцестояние / Midsommar (Ари Астер) [2019, ужасы, триллер, драма, UHD WEB-DL 2160p] DUB (rus, ukr) [iTunes] pb.wtf

Солнцестояние через торрент pb.wtf

Раздают: 2 [ 0 KB/s ]
Размер: 17.54 GB | Добавлен: 2 мес. 12 д. назад | Торрент скачан:86 раз
Скачать  

07-11-2019 09:32 Солнцестояние Скачать торрент  

Солнцестояние / Midsommar««Вековая тьма пробудится»»

Год выпуска: 2019
Страна: США, Швеция, Венгрия
Жанр: ужасы, триллер, драма
Продолжительность: 02:27:05
Перевод: Дублированный | iTunes
Субтитры: Русские (полные |FOCS|), английские
Режиссер: Ари Астер
В ролях:

Флоренс Пью (Dani), Джек Рейнор (Christian), Вильхельм Бломгрен (Pelle), Уильям Джексон Харпер (Josh), Уилл Поултер (Mark), Эллора Торчия (Connie), Арчи Мадекве (Simon), Хенрик Норлен (Ulf), Гуннель Фред (Siv), Изабель Грилл (Maja), Агнес Вестерлунд Разе (Dagny), Юлия Рагнарссон (Inga)
Описание:
День летнего солнцестояния - древний праздник, который во всех культурах окутан мистическим ореолом. В отрезанном от цивилизованного мира шведском поселении раз в 90 лет в этот день проводится уникальный обряд. Именно туда отправляется группа молодых американских антропологов. Однако вскоре после прибытия там начинает происходить нечто необъяснимое, и под светом солнца исследователям открывается настоящая тьма.
Рейтинг:

MPAA: R - Лицам до 17 лет обязательно присутствие взрослого
Качество: WEB-DL 2160p
Формат: MKV
Видео: HEVC HDR, 14.8 Мбит/с, 3840x2160, 23.976 кадр/с
Аудио#1: 48 kHz, AC3, 6ch, ~384.00 kbps avg /RUS/ |Дубляж, iTunes|
Аудио#2: 48 kHz, AC3, 6ch, ~384.00 kbps avg /UKR/ |Дубляж, iTunes|
Аудио#3: 48 kHz, DTS, 6ch, ~1509.00 kbps avg /ENG/ Оригинал

Complete name : D:\movies\Midsommar.2019.2160p.WEB-DL.DTS.5.1.HEVC-SHD13.mkv
Format : Matroska
Format version : Version 4
File size : 17.5 GiB
Duration : 2 h 27 min
Overall bit rate : 17.1 Mb/s
Movie name : Midsommar.2019.2160p.WEB-DL.DTS.5.1.HEVC-SHD13
Encoded date : UTC 2019-11-05 12:50:04
Writing application : mkvmerge v38.0.0 ('The Silent Type') 64-bit
Writing library : libebml v1.3.9 + libmatroska v1.5.2
Attachments : poster.jpg

Video
ID : 1
Format : HEVC
Format/Info : High Efficiency Video Coding
Format profile : Main@L5@Main
Codec ID : V_MPEGH/ISO/HEVC
Duration : 2 h 27 min
Bit rate : 14.8 Mb/s
Width : 3 840 pixels
Height : 2 160 pixels
Display aspect ratio : 16:9
Frame rate mode : Constant
Frame rate : 23.976 (24000/1001) FPS
Color space : YUV
Chroma subsampling : 4:2:0
Bit depth : 8 bits
Bits/(Pixel*Frame) : 0.074
Stream size : 15.2 GiB (87%)
Title : Midsommar.2019.2160p.WEB-DL.DTS.5.1.HEVC-SHD13
Writing library : x265 3.0:[Linux][GCC 4.8.5][64 bit] 8bit
Encoding settings : cpuid=1111039 / frame-threads=6 / wpp / no-pmode / no-pme / no-psnr / no-ssim / log-level=2 / input-csp=1 / input-res=3840x2160 / interlace=0 / total-frames=0 / level-idc=0 / high-tier=1 / uhd-bd=0 / ref=3 / no-allow-non-conformance / no-repeat-headers / annexb / no-aud / no-hrd / info / hash=0 / no-temporal-layers / no-open-gop / min-keyint=4 / keyint=48 / gop-lookahead=0 / bframes=4 / b-adapt=2 / b-pyramid / bframe-bias=0 / rc-lookahead=80 / lookahead-slices=4 / scenecut=0 / radl=0 / no-splice / no-intra-refresh / ctu=64 / min-cu-size=8 / rect / no-amp / max-tu-size=32 / tu-inter-depth=1 / tu-intra-depth=1 / limit-tu=0 / rdoq-level=2 / dynamic-rd=0.00 / no-ssim-rd / signhide / no-tskip / nr-intra=0 / nr-inter=0 / no-constrained-intra / strong-intra-smoothing / max-merge=3 / limit-refs=3 / limit-modes / me=2 / subme=3 / merange=64 / temporal-mvp / weightp / no-weightb / no-analyze-src-pics / deblock=0:0 / no-sao / no-sao-non-deblock / rd=4 / no-early-skip / no-rskip / no-fast-intra / no-tskip-fast / no-cu-lossless / no-b-intra / no-splitrd-skip / rdpenalty=0 / psy-rd=4.00 / psy-rdoq=10.00 / no-rd-refine / no-lossless / cbqpoffs=0 / crqpoffs=0 / rc=abr / bitrate=15000 / qcomp=0.60 / qpstep=1 / stats-write=0 / stats-read=0 / vbv-maxrate=22500 / vbv-bufsize=22500 / vbv-init=0.9 / ipratio=1.10 / pbratio=1.00 / aq-mode=0 / aq-strength=0.00 / no-cutree / zone-count=0 / no-strict-cbr / qg-size=32 / rc-grain / qpmax=69 / qpmin=0 / const-vbv / sar=1 / overscan=0 / videoformat=5 / range=0 / colorprim=1 / transfer=1 / colormatrix=1 / chromaloc=0 / display-window=0 / max-cll=0,0 / min-luma=0 / max-luma=255 / log2-max-poc-lsb=8 / vui-timing-info / vui-hrd-info / slices=1 / no-opt-qp-pps / no-opt-ref-list-length-pps / no-multi-pass-opt-rps / scenecut-bias=0.05 / no-opt-cu-delta-qp / no-aq-motion / no-hdr / no-hdr-opt / no-dhdr10-opt / no-idr-recovery-sei / analysis-reuse-level=5 / scale-factor=0 / refine-intra=0 / refine-inter=0 / refine-mv=0 / refine-ctu-distortion=0 / no-limit-sao / ctu-info=0 / no-lowpass-dct / refine-analysis-type=0 / copy-pic=1 / max-ausize-factor=1.0 / no-dynamic-refine / no-single-sei / no-hevc-aq / qp-adaptation-range=1.00
Language : Russian
Default : Yes
Forced : No
Color range : Limited
Color primaries : BT.709
Transfer characteristics : BT.709
Matrix coefficients : BT.709

Audio #1
ID : 2
Format : AC-3
Format/Info : Audio Coding 3
Commercial name : Dolby Digital
Codec ID : A_AC3
Duration : 2 h 27 min
Bit rate mode : Constant
Bit rate : 384 kb/s
Channel(s) : 6 channels
Channel layout : L R C LFE Ls Rs
Sampling rate : 48.0 kHz
Frame rate : 31.250 FPS (1536 SPF)
Bit depth : 16 bits
Compression mode : Lossy
Stream size : 404 MiB (2%)
Title : Dub,iTunes
Language : Russian
Service kind : Complete Main
Default : Yes
Forced : No

Audio #2
ID : 3
Format : AC-3
Format/Info : Audio Coding 3
Commercial name : Dolby Digital
Codec ID : A_AC3
Duration : 2 h 27 min
Bit rate mode : Constant
Bit rate : 384 kb/s
Channel(s) : 6 channels
Channel layout : L R C LFE Ls Rs
Sampling rate : 48.0 kHz
Frame rate : 31.250 FPS (1536 SPF)
Bit depth : 16 bits
Compression mode : Lossy
Stream size : 404 MiB (2%)
Title : Dub,iTunes
Language : Ukrainian
Service kind : Complete Main
Default : No
Forced : No

Audio #3
ID : 4
Format : DTS
Format/Info : Digital Theater Systems
Codec ID : A_DTS
Duration : 2 h 27 min
Bit rate mode : Constant
Bit rate : 1 509 kb/s
Channel(s) : 6 channels
Channel layout : C L R Ls Rs LFE
Sampling rate : 48.0 kHz
Frame rate : 93.750 FPS (512 SPF)
Bit depth : 24 bits
Compression mode : Lossy
Stream size : 1.55 GiB (9%)
Language : English
Default : No
Forced : No

Text #1
ID : 5
Format : UTF-8
Codec ID : S_TEXT/UTF8
Codec ID/Info : UTF-8 Plain Text
Duration : 2 h 20 min
Bit rate : 59 b/s
Count of elements : 1343
Stream size : 61.7 KiB (0%)
Language : Russian
Default : Yes
Forced : No

Text #2
ID : 6
Format : UTF-8
Codec ID : S_TEXT/UTF8
Codec ID/Info : UTF-8 Plain Text
Duration : 2 h 11 min
Bit rate : 40 b/s
Count of elements : 1362
Stream size : 38.6 KiB (0%)
Language : English
Default : No
Forced : No

Text #3
ID : 7
Format : UTF-8
Codec ID : S_TEXT/UTF8
Codec ID/Info : UTF-8 Plain Text
Duration : 2 h 20 min
Bit rate : 45 b/s
Count of elements : 1671
Stream size : 46.8 KiB (0%)
Title : SDH
Language : English
Default : No
Forced : No
pb.wtf



Скачать Солнцестояние через торрент https://b.radikal.ru/b28/1911/12/08640e8312e2.png Скачать фильм Солнцестояние через торрент бесплантно в хорошем качестве Описание: День летнего солнцестояния - древний праздник, который во всех культурах окутан мистическим ореолом. В отрезанном от ... 10 10 3
Торрент: Зарегистрирован [2019-11-07 09:32] · скачан: 86 раз
Статус: √ проверено
Размер: 17.54 GB
Как cкачать? Как скачать Солнцестояние через торрент | qTorrent

% Раздел Тема Автор DL S | L
Фильмы 2019-2020 [DVDrip, WEB-DLRip, HDrip] (DUB, MVO) [ 2.18 GB ] Солнцестояние / Midsommar [2019 BDRip] [Режиссерская версия] bober100 Скачать
5 | 0
Фильмы 2019-2020 [DVDrip, WEB-DLRip, HDrip] (DUB, MVO) [ 1.46 GB ] Солнцестояние / Midsommar [2019 BDRip] [Режиссерская версия] bober100 Скачать
13 | 0
Фильмы [HD 720p, 1080p] (Хороший звук DUB, MVO) [ 12.75 GB ] Солнцестояние / Midsommar [2019 BDRip 1080p] [Режиссерская версия] +2xAVO bober100 Скачать
6 | 0
Фильмы [HD 720p, 1080p] (Хороший звук DUB, MVO) [ 8.37 GB ] Солнцестояние / Midsommar [2019 BDRip 720p] [Режиссерская версия] +2xAVO bober100 Скачать
7 | 0
Фильмы 2019-2020 [DVDrip, WEB-DLRip, HDrip] (DUB, MVO) [ 2.84 GB ] Солнцестояние / Midsommar [2019 BDRip] [Режиссерская версия] bober100 Скачать
7 | 0
Фильмы с авторской озвучкой [ 2.91 GB ] Солнцестояние / Midsommar [2019 BDRip] [Режиссерская версия / Director's Cut] AVO Леонид Ильич Скачать
2 | 0
Ultra HD (UHD: 2K, 4K, 8K) — видео сверхвысокой чёткости [ 24.36 GB ] Солнцестояние / Midsommar [2019 UHD BDRip 2160p] DUB sheker187 Скачать
2 | 0

28-11-2019 20:33  

Отключить всю рекламу на сайте

08-11-2019 18:56 Солнцестояние Скачать торрент  

крутое киноpb.wtf



29-11-2019 18:12 Солнцестояние Скачать торрент  

НЕ смотрите ЭТО !!!!! Это полная дичь !!!! Потратил 2,5 часа жизни на чушь !!!pb.wtf



    Дорогой пользователь! Огромная просьба, поблагодарите релизера, оцените раздачу и оставьте свои комментарий, если Вы скачали Солнцестояние через торрент бесплатно! Внесите свою лепту в развитие PiratBit!
    Комментировать посты могут только пользователи прошедшие не сложную регистрацию
    Показать сообщения:    

    Солнцестояние через торрент
    Скачать бесплатно Солнцестояние
    Солнцестояние скачать торрент
    Солнцестояние смотреть онлайн
    Cкачать фильм Солнцестояние бесплатно
    Солнцестояние скачать торрент в хорошем качестве
    Солнцестояние смотреть онлайн бесплатно в хорошем качестве


    Вы не можете начинать темы
    Вы не можете отвечать на сообщения
    Вы не можете редактировать свои сообщения
    Вы не можете удалять свои сообщения
    Вы не можете голосовать в опросах
    Вы не можете прикреплять файлы к сообщениям
    Вы можете скачивать файлы