новый адрес
Мега распродажа FORZA HORIZON 4 ULTIMATE+ВСЕ DLC+ОНЛАЙН всего за 499р. 349 руб. (супер цена). Внимание количество ограничено!!!

iTunes

1+1

iTunes

мы

iTunes

1

iTunes

Чернобыль

iTunes

Ральф против интернета

Лицензия

ПШазам

Лицензия

Игра престолов

Лицензия

30
pack

ВАЖНО

!!Акция!!

Alien_RageХит недели

RePack

Resident Evil 21

ИГРА 18+

pack

RePack

Metro:Exodus

!!Акция!!

Alien_Rage

RePack

fifa19

RePack

Assassins Creed: Odyssey

RePack

NEED FOR SPEED™ PAYBACK

3 сезон

9 сезон

Бесстыжие 9 сезон

Все сериалы

все сериалы на PB.wtf

RePack

FAR CRY 5
Ребята, катастрофически не хватает 1900р. для оплаты серверов за Октябрь (всвязи с блокировками трафик упал в 3 раза), 1-2р., выручайте.
  

Большая руда (Василий Ордынский) [1964, СССР, драма, WEB-DLRip от AVP Studio] pb.wtf

Большая руда через торрент pb.wtf

Раздают: 12 [ 0 KB/s ]
Размер: 745 MB | Добавлен: 12 д. назад | Торрент скачан:2 раза
Скачать  

07-11-2019 09:39 Большая руда Скачать торрент  

Большая руда
Страна: СССР
Производство: Мосфильм

Жанр: драма
Год выпуска: 1964
Продолжительность: 01:24:12

Перевод: Не требуется
Cубтитры: нет
Оригинальная аудиодорожка: русский

Режиссер: Василий Ордынский

В ролях:
Евгений Урбанский, Всеволод Санаев, Станислав Любшин, Борис Юрченко, Михаил Глузский, Роман Хомятов, Юрий Легков, Лариса Лужина, Инна Макарова, Валентин Никулин, Георгий Жжёнов, Светлана Жгун...
Об актёрах подробней

Описание:
Виктор Пронякин вернулся из армии к невесте, а у нее — другой. Рванул Виктор на «большую» курскую руду. А работы здесь — в самом разгаре: все живут ожиданием первой машины с рудой. Чтобы проверить «новенького», бригадир дает ему побитый МАЗ: починит — значит надолго пришел. Парень устроился в «общаге», починил машину, и стал ставить один за другим рекорды. Друзей Пронякин не заимел, озлобил против себя всю бригаду, но ковш первой руды повез именно он…

Источник: WEB-DL 720p
Качество видео: WEB-DLRip
Формат видео: AVI

Видео: 720х400 (16:9), 25 fps, XviD ~ 1035 kbps avg, 0.144 bit/pixel
Аудио: 48 kHz, Dolby Digital AC3 2.0, 192 kbps

Раздача от:
Общее
Полное имя : Bolshaya.ruda.1964.HDTVRip_[New-team]_by_AVP_Studio.avi
Формат : AVI
Формат/Информация : Audio Video Interleave
Размер файла : 745 Мбайт
Продолжительность : 1 ч. 24 м.
Общий поток : 1237 Кбит/сек
Программа кодирования : VirtualDubMod 1.5.10.3 | www.virtualdub-fr.org || (build 2550/release)
Библиотека кодирования : VirtualDubMod build 2550/release

Видео
Идентификатор : 0
Формат : MPEG-4 Visual
Профиль формата : Advanced Simple@L5
Настройки формата : BVOP1 / Custom Matrix
Параметр BVOP формата : 1
Параметр QPel формата : Нет
Параметр GMC формата : Без точки перехода
Параметр матрицы формата : Выборочная
Идентификатор кодека : XVID
Идентификатор кодека/Подсказка : XviD
Продолжительность : 1 ч. 24 м.
Битрейт : 1035 Кбит/сек
Ширина : 720 пикселей
Высота : 400 пикселей
Соотношение сторон : 16:9
Частота кадров : 25,000 кадров/сек
Цветовое пространство : YUV
Субдискретизация насыщенности : 4:2:0
Битовая глубина : 8 бит
Тип развёртки : Прогрессивная
Метод сжатия : С потерями
Бит/(Пиксели*Кадры) : 0.144
Размер потока : 624 Мбайт (84%)
Библиотека кодирования : XviD 73

Аудио
Идентификатор : 1
Формат : AC-3
Формат/Информация : Audio Coding 3
Коммерческое название : Dolby Digital
Идентификатор кодека : 2000
Продолжительность : 1 ч. 24 м.
Вид битрейта : Постоянный
Битрейт : 192 Кбит/сек
Каналы : 2 канала
ChannelLayout : L R
Частота : 48,0 КГц
Частота кадров : 31,250 кадров/сек (1536 SPF)
Битовая глубина : 16 бит
Метод сжатия : С потерями
Размер потока : 116 Мбайт (16%)
Выравнивание : Разделение по промежуткам
Продолжительность промежутка : 40 мс. (1,00 видеокадр)
Время предзагрузки промежутка : 500 мс
pb.wtf



Скачать Большая руда через торрент http://picplus.ru/img/1911/07/25875f7d.png Скачать фильм Большая руда через торрент бесплантно в хорошем качестве Описание:Виктор Пронякин вернулся из армии к невесте, а у нее — другой. Рванул Виктор на «большую» курскую руду. А работы здесь — в самом ... 5 10 1
Info! Золотая раздача, скачанное не засчитывается.
Торрент: Зарегистрирован [2019-11-07 09:39] · скачан: 2 раз
Статус: √ проверено
Размер: 745 MB
Как cкачать? Как скачать Большая руда через торрент | qTorrent

% Раздел Тема Автор DL S | L
Кино СССР [ 1.46 GB ] Большая руда [1964 СССР WEB-DLRip-AVC от AVP Studio] AVP Studio Скачать
5 | 2
Анальный секс [ 405 MB ] Jenny Hendrix / Грудастая красотка и 3 больших члена. [2009 All Sex Oral AnalBig TitsDP DVDRip] SUPERXX Скачать
1 | 0
Разное [ 306 MB ] Грудастая мамочка приняла в себя большой член [2011 All sex DVDRip] gugibugi Скачать
1 | 0
Фото Разное [ 58 MB ] [wifeysworld] Грудастая блондинка с шикарной фигурой с [Часть 2] [big tits solo posing toys sex][от 490х653 и больше 544 фото] ЧуМаДаН Скачать
1 | 0
Фото Разное [ 42 MB ] Грудастая блондинка с шикарной фигурой с wifeysworld[Часть 1] [500штот 600х800 и больше] ЧуМаДаН Скачать
1 | 0
Анальный секс [ 314 MB ] Грудастая красотка махнула чупачупсину на большой член. [2010 All Sex Oral Anal. DVDRip] MERS77 Скачать
1 | 0
Разное [ 215 MB ] Грудастая красотка дорвалась до большого члена [2008 All Sex DVDRip] Anonymous Скачать
1 | 0


>> Регистрируемся здесь <<






Отзывы и комментарии о схеме читаем и пишем здесь: ---> Отзывы и комментарии о схеме

Новые благодарочки в телеграм довольных пользователей:
скриншот   скриншот   скриншот   скриншот   скриншот
    Дорогой пользователь! Огромная просьба, поблагодарите релизера, оцените раздачу и оставьте свои комментарий, если Вы скачали Большая руда через торрент бесплатно! Внесите свою лепту в развитие PiratBit!
    Комментировать посты могут только пользователи прошедшие не сложную регистрацию
    Показать сообщения:    

    Большая руда через торрент
    Скачать бесплатно Большая руда
    Большая руда скачать торрент
    Большая руда смотреть онлайн
    Cкачать фильм Большая руда бесплатно
    Большая руда скачать торрент в хорошем качестве
    Большая руда смотреть онлайн бесплатно в хорошем качестве


    Вы не можете начинать темы
    Вы не можете отвечать на сообщения
    Вы не можете редактировать свои сообщения
    Вы не можете удалять свои сообщения
    Вы не можете голосовать в опросах
    Вы не можете прикреплять файлы к сообщениям
    Вы можете скачивать файлы