новый адрес
Ссылка на приватное зеркало всего за 1$. Внимание количество ограничено!!!

iTunes

1+1

iTunes

мы

iTunes

1

iTunes

Чернобыль

iTunes

Ральф против интернета

Лицензия

ПШазам

Лицензия

Оно 2

Лицензия

30
pack

Вам бонус

ВАЖНО

!!Акция!!

Alien_RageХит недели

RePack

Resident Evil 21

ИГРА 18+

pack

RePack

jed

!!Акция!!

Alien_Rage

RePack

fifa19

RePack

Assassins Creed: Odyssey

RePack

NEED FOR SPEED™ PAYBACK

3 сезон

9 сезон

Бесстыжие 9 сезон

Все сериалы

все сериалы на PB.wtf

RePack

FAR CRY 5
Ребята, катастрофически не хватает 1900р. для оплаты серверов за Октябрь (всвязи с блокировками трафик упал в 3 раза), 1-2р., выручайте.
  

Большая руда (Василий Ордынский) [1964, СССР, драма, WEB-DLRip-AVC от AVP Studio] pb.wtf

Большая руда через торрент pb.wtf

Раздают: 3 [ 0 KB/s ]
Размер: 1.46 GB | Добавлен: 15 д. назад | Торрент скачан:6 раз
Скачать  

07-11-2019 09:40 Большая руда Скачать торрент  

Большая руда
Страна: СССР
Производство: Мосфильм

Жанр: драма
Год выпуска: 1964
Продолжительность: 01:24:12

Перевод: Не требуется
Cубтитры: нет
Оригинальная аудиодорожка: русский

Режиссер: Василий Ордынский

В ролях:
Евгений Урбанский, Всеволод Санаев, Станислав Любшин, Борис Юрченко, Михаил Глузский, Роман Хомятов, Юрий Легков, Лариса Лужина, Инна Макарова, Валентин Никулин, Георгий Жжёнов, Светлана Жгун...
Об актёрах подробней

Описание:
Виктор Пронякин вернулся из армии к невесте, а у нее — другой. Рванул Виктор на «большую» курскую руду. А работы здесь — в самом разгаре: все живут ожиданием первой машины с рудой. Чтобы проверить «новенького», бригадир дает ему побитый МАЗ: починит — значит надолго пришел. Парень устроился в «общаге», починил машину, и стал ставить один за другим рекорды. Друзей Пронякин не заимел, озлобил против себя всю бригаду, но ковш первой руды повез именно он…

Источник: WEB-DL 720p
Качество видео: WEB-DLRip-AVC
Формат видео: MKV

Видео: 1024х576 (16:9), 25 fps, H264 ~ 2287 kbps avg, 0.155 bit/pixel
Аудио: 48 kHz, Dolby Digital AC3 2.0, 192 kbps

Раздача от:
Общее
Полное имя : Bolshaya.ruda.1964.HDTVRip-AVC_[New-team]_by_AVP_Studio.mkv
Формат : Matroska
Версия формата : Version 2
Размер файла : 1,46 Гбайт
Продолжительность : 1 ч. 24 м.
Общий поток : 2481 Кбит/сек
Дата кодирования : UTC 2019-11-04 13:02:23
Программа кодирования : mkvmerge v6.1.0 ('Old Devil') built on Mar 4 2013 09:10:42
Библиотека кодирования : libebml v1.3.0 + libmatroska v1.4.0

Видео
Идентификатор : 1
Формат : AVC
Формат/Информация : Advanced Video Codec
Профиль формата : High@L4.1
Настройки формата : CABAC / 10 Ref Frames
Параметр CABAC формата : Да
Параметр RefFrames формата : 10 кадров
Идентификатор кодека : V_MPEG4/ISO/AVC
Продолжительность : 1 ч. 24 м.
Битрейт : 2287 Кбит/сек
Ширина : 1024 пикселя
Высота : 576 пикселей
Соотношение сторон : 16:9
Режим частоты кадров : Постоянный
Частота кадров : 25,000 кадров/сек
Цветовое пространство : YUV
Субдискретизация насыщенности : 4:2:0
Битовая глубина : 8 бит
Тип развёртки : Прогрессивная
Бит/(Пиксели*Кадры) : 0.155
Размер потока : 1,32 Гбайт (90%)
Библиотека кодирования : x264 core 157 r2932 303c484
Настройки программы : cabac=1 / ref=10 / deblock=1:-3:-2 / analyse=0x3:0x113 / me=umh / subme=10 / psy=1 / psy_rd=1.00:0.00 / mixed_ref=1 / me_range=32 / chroma_me=1 / trellis=2 / 8x8dct=1 / cqm=0 / deadzone=21,11 / fast_pskip=1 / chroma_qp_offset=-2 / threads=6 / lookahead_threads=1 / sliced_threads=0 / nr=0 / decimate=0 / interlaced=0 / bluray_compat=0 / constrained_intra=0 / bframes=8 / b_pyramid=2 / b_adapt=2 / b_bias=0 / direct=3 / weightb=1 / open_gop=0 / weightp=2 / keyint=250 / keyint_min=25 / scenecut=40 / intra_refresh=0 / rc_lookahead=40 / rc=2pass / mbtree=1 / bitrate=2287 / ratetol=1.0 / qcomp=0.60 / qpmin=0 / qpmax=69 / qpstep=4 / cplxblur=20.0 / qblur=0.5 / ip_ratio=1.40 / aq=1:1.00
Default : Да
Forced : Нет

Аудио
Идентификатор : 2
Формат : AC-3
Формат/Информация : Audio Coding 3
Коммерческое название : Dolby Digital
Идентификатор кодека : A_AC3
Продолжительность : 1 ч. 24 м.
Вид битрейта : Постоянный
Битрейт : 192 Кбит/сек
Каналы : 2 канала
ChannelLayout : L R
Частота : 48,0 КГц
Частота кадров : 31,250 кадров/сек (1536 SPF)
Битовая глубина : 16 бит
Метод сжатия : С потерями
Размер потока : 116 Мбайт (8%)
Default : Да
Forced : Нет
pb.wtf



Скачать Большая руда через торрент http://picplus.ru/img/1911/07/25875f7d.png Скачать фильм Большая руда через торрент бесплантно в хорошем качестве Описание:Виктор Пронякин вернулся из армии к невесте, а у нее — другой. Рванул Виктор на «большую» курскую руду. А работы здесь — в самом ... 5 10 1
Info! Золотая раздача, скачанное не засчитывается.
Торрент: Зарегистрирован [2019-11-07 09:40] · скачан: 6 раз
Статус: √ проверено
Размер: 1.46 GB
Как cкачать? Как скачать Большая руда через торрент | qTorrent

% Раздел Тема Автор DL S | L
Кино СССР [ 745 MB ] Большая руда [1964 СССР WEB-DLRip от AVP Studio] AVP Studio Скачать
14 | 1
Анальный секс [ 405 MB ] Jenny Hendrix / Грудастая красотка и 3 больших члена. [2009 All Sex Oral AnalBig TitsDP DVDRip] SUPERXX Скачать
1 | 0
Разное [ 306 MB ] Грудастая мамочка приняла в себя большой член [2011 All sex DVDRip] gugibugi Скачать
1 | 0
Фото Разное [ 58 MB ] [wifeysworld] Грудастая блондинка с шикарной фигурой с [Часть 2] [big tits solo posing toys sex][от 490х653 и больше 544 фото] ЧуМаДаН Скачать
1 | 0
Фото Разное [ 42 MB ] Грудастая блондинка с шикарной фигурой с wifeysworld[Часть 1] [500штот 600х800 и больше] ЧуМаДаН Скачать
1 | 0
Анальный секс [ 314 MB ] Грудастая красотка махнула чупачупсину на большой член. [2010 All Sex Oral Anal. DVDRip] MERS77 Скачать
1 | 0
Разное [ 215 MB ] Грудастая красотка дорвалась до большого члена [2008 All Sex DVDRip] Anonymous Скачать
1 | 0
    Дорогой пользователь! Огромная просьба, поблагодарите релизера, оцените раздачу и оставьте свои комментарий, если Вы скачали Большая руда через торрент бесплатно! Внесите свою лепту в развитие PiratBit!
    Комментировать посты могут только пользователи прошедшие не сложную регистрацию
    Показать сообщения:    

    Большая руда через торрент
    Скачать бесплатно Большая руда
    Большая руда скачать торрент
    Большая руда смотреть онлайн
    Cкачать фильм Большая руда бесплатно
    Большая руда скачать торрент в хорошем качестве
    Большая руда смотреть онлайн бесплатно в хорошем качестве


    Вы не можете начинать темы
    Вы не можете отвечать на сообщения
    Вы не можете редактировать свои сообщения
    Вы не можете удалять свои сообщения
    Вы не можете голосовать в опросах
    Вы не можете прикреплять файлы к сообщениям
    Вы можете скачивать файлы