новый адрес пиратбит piratbit
Мега распродажа FORZA HORIZON 4 ULTIMATE+ВСЕ DLC+ОНЛАЙН всего за 499р. 349 руб. (супер цена). Внимание количество ограничено!!!

iTunes

1+1

iTunes

мы

iTunes

1

iTunes

Чернобыль

iTunes

Ральф против интернета

Лицензия

ПШазам

Лицензия

Игра престолов

Лицензия

30
pack

ВАЖНО

!!Акция!!

Alien_RageХит недели

RePack

Resident Evil 21

ИГРА 18+

pack

RePack

Metro:Exodus

!!Акция!!

Alien_Rage

RePack

fifa19

RePack

Assassins Creed: Odyssey

RePack

NEED FOR SPEED™ PAYBACK

3 сезон

9 сезон

Бесстыжие 9 сезон

Все сериалы

все сериалы на PB.wtf

RePack

FAR CRY 5
Ребята, катастрофически не хватает 1900р. для оплаты серверов за Октябрь (всвязи с блокировками трафик упал в 3 раза), 1-2р., выручайте.
  

Британия / Britannia / Сезон: 2 / Серии: 1-10 из 10 (Люк Уотсон, Роб Сэвадж, Шери Фоксон) [2019, фэнтези, драма, WEBRip] MVO [Octopus] pb.wtf

Британия через торрент pb.wtf

Раздают: 20 [ 145 KB/s ] Качают: 6 [ 0 KB/s ]
Размер: 5.78 GB | Добавлен: 4 д. назад | Торрент скачан:39 раз
Скачать  

07-11-2019 09:58 Британия Скачать торрент  

Британия / Britannia
Год выпуска: 2019
Страна: США, Великобритания
Жанр: фэнтези, драма
Продолжительность: 00:01:00
Перевод: Любительский (многоголосый) | Octopus
Субтитры: отсутствуют

Режиссер: Люк Уотсон, Роб Сэвадж, Шери Фоксон

rating

В ролях: Элинор Уортингтон-Кокс, Дэвид Моррисси, Келли Райлли, Николай Ли Каас, Лиана Корнелл, Гершвин Эсташ мл., Макензи Крук, Бэрри Уорд, Стэнли Вебер, Джо Армстронг

Описание: События сериала происходят в начале новой эры, когда Британия была населена очень воинственными кельтскими племенами, которые были не готовы перейти под управление иноземцев, пришедших с далекого юга. Во время римского завоевания Британии две враждующие кельтские воительницы - Керра и Антедия - вынуждены объединить силы, чтобы дать отпор римским легионам под предводительством Авла Плавтия.

Качество: WEBRip
Формат: AVI

Видео: XviD, ~ 1500 Кбит/с, 720x400
Аудио: Русский (AC3, 2 ch, 384 Кбит/с)
скриншот  скриншот  скриншот  

Общее
Полное имя : C:\Britannia.S02.400p.Octopus\Britannia.S02E01.400p.Octopus.avi
Формат : AVI
Формат/Информация : Audio Video Interleave
Размер файла : 589 Мбайт
Продолжительность : 42 м. 57 с.
Общий поток : 1916 Кбит/сек
Программа кодирования : VirtualDubMod 1.5.10.3 | www.virtualdub-fr.org || (build 2550/release)
Библиотека кодирования : VirtualDubMod build 2550/release

Видео
Идентификатор : 0
Формат : MPEG-4 Visual
Профиль формата : Advanced Simple@L5
Настройки формата : BVOP2 / Custom Matrix
Параметр BVOP формата : 2
Параметр QPel формата : Нет
Параметр GMC формата : Без точки перехода
Параметр матрицы формата : Выборочная
Идентификатор кодека : XVID
Идентификатор кодека/Подсказка : XviD
Продолжительность : 42 м. 57 с.
Битрейт : 1447 Кбит/сек
Ширина : 720 пикселей
Высота : 400 пикселей
Соотношение сторон : 16:9
Частота кадров : 25,000 кадров/сек
Цветовое пространство : YUV
Субдискретизация насыщенности : 4:2:0
Битовая глубина : 8 бит
Тип развёртки : Прогрессивная
Метод сжатия : С потерями
Бит/(Пиксели*Кадры) : 0.201
Размер потока : 445 Мбайт (76%)
Библиотека кодирования : XviD 1.2.1 (UTC 2008-12-04)

Аудио
Идентификатор : 1
Формат : AC-3
Формат/Информация : Audio Coding 3
Коммерческое название : Dolby Digital
Идентификатор кодека : 2000
Продолжительность : 42 м. 57 с.
Вид битрейта : Постоянный
Битрейт : 384 Кбит/сек
Каналы : 2 канала
ChannelLayout : L R
Частота : 48,0 КГц
Частота кадров : 31,250 кадров/сек (1536 SPF)
Битовая глубина : 16 бит
Метод сжатия : С потерями
Размер потока : 118 Мбайт (20%)
Выравнивание : Разделение по промежуткам
ServiceKind/String : Complete Main

Внимание! Раздача ведётся путём добавления новых серий; при каждом добавлении создаётся новый торрент. Чтобы начать докачку новой серии, пользователям необходимо сделать следующее:
(1) остановить скачивание,
(2) удалить старый торрент-файл у себя из клиента (старые серии удалять не надо),
(3) скачать новый торрент-файл из раздачи и запустить его у себя в клиенте вместо старого, при этом указать клиенту путь в старую папку, куда и должно происходить скачивание новых серий.
pb.wtf



Скачать Британия через торрент https://b.radikal.ru/b06/1911/13/522f8322ca80.jpg Скачать фильм Британия через торрент бесплантно в хорошем качестве Описание: События сериала происходят в начале новой эры, когда Британия была населена очень воинственными кельтскими племенами, которые ... 6.7 10 6
Торрент: Зарегистрирован [2019-11-08 16:40] · скачан: 39 раз
Статус: T временная
Размер: 5.78 GB
Как cкачать? Как скачать Британия через торрент | qTorrent

% Раздел Тема Автор DL S | L
T Зарубежные сериалы [ 22.35 GB ] Британия / Britannia / Сезон: 2 / Серии: 1-10 из 10 [2019 WEBRip 1080p] MVO [Octopus] bober100 Скачать
4 | 0
T Зарубежные сериалы [ 14.33 GB ] Британия / Britannia / Сезон: 2 / Серии: 1-10 из 10 [2019 WEBRip 720p] MVO [Octopus] bober100 Скачать
2 | 0


>> Регистрируемся здесь <<






Отзывы и комментарии о схеме читаем и пишем здесь: ---> Отзывы и комментарии о схеме

Новые благодарочки в телеграм довольных пользователей:
скриншот   скриншот   скриншот   скриншот   скриншот
    Дорогой пользователь! Огромная просьба, поблагодарите релизера, оцените раздачу и оставьте свои комментарий, если Вы скачали Британия через торрент бесплатно! Внесите свою лепту в развитие PiratBit!
    Комментировать посты могут только пользователи прошедшие не сложную регистрацию
    Показать сообщения:    

    Британия через торрент
    Скачать бесплатно Британия
    Британия скачать торрент
    Британия смотреть онлайн
    Cкачать фильм Британия бесплатно
    Британия скачать торрент в хорошем качестве
    Британия смотреть онлайн бесплатно в хорошем качестве


    Вы не можете начинать темы
    Вы не можете отвечать на сообщения
    Вы не можете редактировать свои сообщения
    Вы не можете удалять свои сообщения
    Вы не можете голосовать в опросах
    Вы не можете прикреплять файлы к сообщениям
    Вы можете скачивать файлы