новый адрес пиратбит piratbit
Мега распродажа FORZA HORIZON 4 ULTIMATE+ВСЕ DLC+ОНЛАЙН всего за 499р. 349 руб. (супер цена). Внимание количество ограничено!!!

iTunes

1+1

iTunes

мы

iTunes

1

iTunes

Чернобыль

iTunes

Ральф против интернета

Лицензия

ПШазам

Лицензия

Игра престолов

Лицензия

30
pack

ВАЖНО

!!Акция!!

Alien_RageХит недели

RePack

Resident Evil 21

ИГРА 18+

pack

RePack

Metro:Exodus

!!Акция!!

Alien_Rage

RePack

fifa19

RePack

Assassins Creed: Odyssey

RePack

NEED FOR SPEED™ PAYBACK

3 сезон

9 сезон

Бесстыжие 9 сезон

Все сериалы

все сериалы на PB.wtf

RePack

FAR CRY 5
Ребята, катастрофически не хватает 1900р. для оплаты серверов за Октябрь (всвязи с блокировками трафик упал в 3 раза), 1-2р., выручайте.
  

Король Лев в 3Д / The Lion King 3D (Джон Фавро / Jon Favreau) [2019, Мультфильм, мюзикл, драма, приключения, семейный, ремейк, BDRip, 1080p] OverUnder / Вертикальная стереопара (iTunes) pb.wtf

Король Лев в 3Д через торрент pb.wtf

Размер: 21.13 GB | Добавлен: 4 д. назад | Торрент скачан:9 раз
Скачать  

08-11-2019 13:18 Король Лев в 3Д Скачать торрент  

Король Лев / The Lion King

Год выпуска: 2019
Страна: США(Walt Disney Pictures, Fairview Entertainment)
Жанр: Мультфильм, мюзикл, драма, приключения, семейный, ремейк
Продолжительность: 01:58:15

Перевод: Профессиональный дублированный(iTunes)
Русские субтитры: нет
Режиссер: Джон Фавро / Jon Favreau

Роли озвучивали: Джеймс Эрл Джонс, Дональд Гловер, Чиветел Эджиофор, Джон Оливер, Джон Кани, Элфри Вудард, Джейдон Маккрэри, Шахади Райт Джозеф, Пенни Джонсон, Кигэн-Майкл Ки

Описание: Львенок Симба с раннего детства знал, что однажды станет Королем Львом. Потеря отца, величественного и бесстрашного Муфасы, вероломство дяди, захватившего Влacть; чувство вины, бегство из прайда, новые друзья и философия беззаботности «акуна матата» вынуждают Симбу забыть о своем предназначении. Но царству зверей по-прежнему нужен настоящий король, и однажды он вспомнит дорогу домой.

Сэмпл: http://sendfile.su/1527152

Качество: BDrip, 1080p
Контейнер: MKV
Формат 3D: OverUnder / Вертикальная стереопара
Порядок ракурсов: левый ракурс первый
Видео кодек: x264
Аудио кодек: AC3
Видео: AVC / High@L5.0 / 23,976 fps / 1920х2160 / 24,0 Мбит/сек
Аудио: Русский / AC3 / 48 KHz / 5.1 ch / 384 Кбит/сек(iTunes)
Аудио 2: Английский / AC3 / 48 KHz / 5.1 ch / 640 Кбит/сек

ВНИМАНИЕ ! На встроенных ТВ-плеерах работать не будет!!!

ТВ Samsung в названии которого есть надпись Ultra HD , и LG Ultra HD 800 серии, LG C6P, Xiaomi Mi TV 2 воспроизводят полные стереопары встроенными плеерами
Железные плееры на которых воспроизводятся полные стереопары:Popcorn C-200 , Dune HD Smart D1 , Dune HD DUO , Dune HD Smart H1 , Dune HD Smart B1 , Dune HD Max , Dune HD TV-303D, Dune HD TV-102, Dune HD Base 3D, Philips HMP7001, Aura HD, MECOOL BB2, Zidoo x9s, Lake I Cloud, MiBox 3
Чтобы изображение было на весь экран в плеере выставляем, если рип 1920х1600 - то выставляем 2.35:1 , если 1920х2160 - то выставляем 16:9
Общее
Уникальный идентификатор : 209793618975160885835399894394499784335 (0x9DD4C802CA1612578E0510DF96205E8F)
Полное имя : E:\видео\The Lion King.Rip by SeRoGa00.mkv
Формат : Matroska
Версия формата : Version 2
Размер файла : 21,1 Гбайт
Продолжительность : 1 ч. 58 м.
Общий поток : 25,6 Мбит/сек
Дата кодирования : UTC 2019-11-08 02:44:03
Программа кодирования : mkvmerge v3.4.0 ('Rapunzel') сборка от May 15 2010 09:38:20
Библиотека кодирования : libebml v0.8.0 + libmatroska v0.9.0

Видео
Идентификатор : 1
Формат : AVC
Формат/Информация : Advanced Video Codec
Профиль формата : High@L5.0
Параметр CABAC формата : Да
Параметр ReFrames формата : 4 кадра
Идентификатор кодека : V_MPEG4/ISO/AVC
Продолжительность : 1 ч. 58 м.
Битрейт : 24,0 Мбит/сек
Ширина : 1920 пикселей
Высота : 2160 пикселей
Соотношение сторон : 0,889
Частота кадров : 23,976 кадра/сек
Цветовое пространство : YUV
Субдискретизация насыщенности : 4:2:0
Битовая глубина : 8 бит
Тип развёртки : Прогрессивная
Бит/(Пиксели*Кадры) : 0.242
Размер потока : 19,9 Гбайт (94%)
Заголовок : Rip by SeRoGa00
Библиотека кодирования : x264 core 155 r2901 7d0ff22
Настройки программы : cabac=1 / ref=4 / deblock=1:-3:-3 / analyse=0x3:0x113 / me=umh / subme=10 / psy=1 / psy_rd=1.00:0.15 / mixed_ref=1 / me_range=24 / chroma_me=1 / trellis=2 / 8x8dct=1 / cqm=0 / deadzone=21,11 / fast_pskip=1 / chroma_qp_offset=-3 / threads=18 / lookahead_threads=6 / sliced_threads=0 / nr=0 / decimate=0 / interlaced=0 / bluray_compat=0 / constrained_intra=0 / bframes=10 / b_pyramid=2 / b_adapt=2 / b_bias=0 / direct=3 / weightb=1 / open_gop=0 / weightp=2 / keyint=250 / keyint_min=23 / scenecut=40 / intra_refresh=0 / rc_lookahead=60 / rc=crf / mbtree=1 / crf=16.5 / qcomp=0.60 / qpmin=10 / qpmax=69 / qpstep=4 / vbv_maxrate=40000 / vbv_bufsize=40000 / crf_max=0.0 / nal_hrd=none / filler=0 / ip_ratio=1.40 / aq=1:1.00
Язык : English
Default : Нет
Forced : Нет

Аудио #1
Идентификатор : 2
Формат : AC-3
Формат/Информация : Audio Coding 3
Расширение режима : CM (complete main)
Параметр Endianness формата : Big
Идентификатор кодека : A_AC3
Продолжительность : 1 ч. 58 м.
Вид битрейта : Постоянный
Битрейт : 384 Кбит/сек
Каналы : 6 каналов
Расположение каналов : Front: L C R, Side: L R, LFE
Частота : 48,0 КГц
Битовая глубина : 16 бит
Метод сжатия : С потерями
Размер потока : 325 Мбайт (2%)
Язык : Russian
Default : Да
Forced : Нет

Аудио #2
Идентификатор : 3
Формат : AC-3
Формат/Информация : Audio Coding 3
Расширение режима : CM (complete main)
Параметр Endianness формата : Big
Идентификатор кодека : A_AC3
Продолжительность : 1 ч. 58 м.
Вид битрейта : Постоянный
Битрейт : 640 Кбит/сек
Каналы : 6 каналов
Расположение каналов : Front: L C R, Side: L R, LFE
Частота : 48,0 КГц
Битовая глубина : 16 бит
Метод сжатия : С потерями
Размер потока : 541 Мбайт (3%)
Язык : English
Default : Нет
Forced : Нет

Меню
00:00:00.000 : en:00:00:00.000
00:04:50.497 : en:00:04:50.497
00:10:51.067 : en:00:10:51.067
00:17:47.691 : en:00:17:47.691
00:23:53.013 : en:00:23:53.013
00:30:00.131 : en:00:30:00.131
00:33:05.066 : en:00:33:05.066
00:37:09.309 : en:00:37:09.309
00:43:42.911 : en:00:43:42.911
00:50:47.335 : en:00:50:47.335
00:55:02.715 : en:00:55:02.715
00:59:48.458 : en:00:59:48.458
01:06:27.233 : en:01:06:27.233
01:14:32.091 : en:01:14:32.091
01:18:26.409 : en:01:18:26.409
01:23:07.899 : en:01:23:07.899
01:28:04.654 : en:01:28:04.654
01:33:10.876 : en:01:33:10.876
01:37:13.743 : en:01:37:13.743
01:44:39.189 : en:01:44:39.189
01:47:47.335 : en:01:47:47.335
скриншот  

скриншот  

скриншот  

скриншот  

скриншот  

скриншот  
pb.wtf



Скачать Король Лев в 3Д через торрент https://a.radikal.ru/a11/1911/1e/1aefaf092e2a.png Скачать фильм Король Лев в 3Д через торрент бесплантно в хорошем качестве Описание: Львенок Симба с раннего детства знал, что однажды станет Королем Львом. Потеря отца, величественного и бесстрашного Муфасы, ... 5 10 1
Торрент: Зарегистрирован [2019-11-08 13:18] · скачан: 9 раз
Статус: √ проверено
Размер: 21.13 GB
Как cкачать? Как скачать Король Лев в 3Д через торрент | qTorrent


>> Регистрируемся здесь <<






Отзывы и комментарии о схеме читаем и пишем здесь: ---> Отзывы и комментарии о схеме

Новые благодарочки в телеграм довольных пользователей:
скриншот   скриншот   скриншот   скриншот   скриншот
    Дорогой пользователь! Огромная просьба, поблагодарите релизера, оцените раздачу и оставьте свои комментарий, если Вы скачали Король Лев в 3Д через торрент бесплатно! Внесите свою лепту в развитие PiratBit!
    Комментировать посты могут только пользователи прошедшие не сложную регистрацию
    Показать сообщения:    

    Король Лев в 3Д через торрент
    Скачать бесплатно Король Лев в 3Д
    Король Лев в 3Д скачать торрент
    Король Лев в 3Д смотреть онлайн
    Cкачать фильм Король Лев в 3Д бесплатно
    Король Лев в 3Д скачать торрент в хорошем качестве
    Король Лев в 3Д смотреть онлайн бесплатно в хорошем качестве


    Вы не можете начинать темы
    Вы не можете отвечать на сообщения
    Вы не можете редактировать свои сообщения
    Вы не можете удалять свои сообщения
    Вы не можете голосовать в опросах
    Вы не можете прикреплять файлы к сообщениям
    Вы можете скачивать файлы