2 сезон

iTunes

1 сезон

1

iTunes

iTunes

iTunes

1 сезон

RePack

30

ИГРА 18+

pack

ВАЖНО

!!Акция!!

Alien_RageХит недели

RePack

MK11
pack

Забери бонус

RePack

jed

!!Акция!!

Alien_Rage

RePack

fifa19

RePack

Assassins Creed: Odyssey

RePack

NEED FOR SPEED™ PAYBACK

4 сезон

9 сезон

Бесстыжие 9 сезон

Все сериалы

все сериалы на PB.wtf

RePack

FAR CRY 5
  

Мой ангел / Серии: 1-2 из 2 (Александр Кананович) [2019, Криминал, мелодрама, SATRip] pb.wtf

Мой ангел через торрент pb.wtf

Размер: 1.17 GB | Добавлен: 11 мес. назад | Торрент скачан:29 раз
Скачать  

08-11-2019 14:15 Мой ангел Скачать торрент  

Мой ангел

Жанр: Криминал, мелодрама
Год выпуска: 2019
Производство: Россия, ООО «Студия Кинотрадиции»
Продолжительность: 2 x ~00:44:00
Субтитры: Отсутствуют

Режиссёр: Александр Кананович

В ролях: Роман Маякин, Маруся Зыкова, Евгения Малахова, Жанна Эппле, Андрей Пынзару, Артём Гайдуков, Егор Вадов, Василий Мичков, Сергей Барышев, Зоя Мансурова, Екатерина Дорогина, Роман Фомин, Марина Суворова, Валерий Бат, Евгений Пилипенко

Описание: Аркадию около тридцати, и он сам знает, что он рохля. Его выгнали с работы, он потерял жилье и любимую девушку… Именно в этот момент в его жизни появляется Анжела. Она кажется такой беззаботной, такой безбашенной. Рядом с ней Аркадию почему-то все по плечу. Между ними больше, чем влюбленность, – за считанные дни они становятся настоящими друзьями. Но скоро выясняется, что ангелы – не такие уж легкие существа, и жизнь у них бывает очень непростая...

Сэмпл |
Реклама: Отсутствует

Качество видео: SATRip
Формат видео: AVI

Видео: XviD, 720x400, ~ 1700 Кбит/с, 0.235 bit/pixel
Аудио: МР3, 2 ch, 192 Кбит/с
Общее
Полное имя : D:\Мой.Ангел.XviD.2019.SATRip.Kinozal-Reliz.7turza.Мой.Ангел.Kinozal-Reliz.7turza.avi
Формат : AVI
Формат/Информация : Audio Video Interleave
Размер файла : 595 Мбайт
Продолжительность : 43 м. 50 с.
Общий поток : 1897 Кбит/сек
Название фильма : S01 E01 # from 7turza #
Программа кодирования : Lavf58.20.100
Библиотека кодирования : VirtualDub build 35576/release

Видео
Идентификатор : 0
Формат : MPEG-4 Visual
Профиль формата : Advanced Simple@L5
Настройки формата : BVOP1
Параметр BVOP формата : 1
Параметр QPel формата : Нет
Параметр GMC формата : Без точки перехода
Параметр матрицы формата : Default (H.263)
Идентификатор кодека : XVID
Идентификатор кодека/Подсказка : XviD
Продолжительность : 43 м. 50 с.
Битрейт : 1692 Кбит/сек
Ширина : 720 пикселей
Высота : 400 пикселей
Соотношение сторон : 1,85:1
Частота кадров : 25,000 кадров/сек
Цветовое пространство : YUV
Субдискретизация насыщенности : 4:2:0
Битовая глубина : 8 бит
Тип развёртки : Прогрессивная
Бит/(Пиксели*Кадры) : 0.235
Размер потока : 531 Мбайт (89%)
Библиотека кодирования : XviD 67

Аудио
Идентификатор : 1
Формат : MPEG Audio
Версия формата : Version 1
Профиль формата : Layer 3
Настройки формата : Joint stereo
Идентификатор кодека : 55
Идентификатор кодека/Подсказка : MP3
Продолжительность : 43 м. 50 с.
Вид битрейта : Постоянный
Битрейт : 192 Кбит/сек
Каналы : 2 канала
Частота : 48,0 КГц
Размер потока : 60,2 Мбайт (10%)
Выравнивание : Соединение по промежуткам
Продолжительность промежутка : 24 мс. (0,60 видеокадр)
Время предзагрузки промежутка : 504 мс.
Библиотека кодирования : LAME3.100ªªªª1¡_E
pb.wtf



Скачать Мой ангел через торрент https://b.radikal.ru/b09/1911/2b/961e6a28d90b.jpg Скачать фильм Мой ангел через торрент бесплантно в хорошем качестве Описание: Аркадию около тридцати, и он сам знает, что он рохля. Его выгнали с работы, он потерял жилье и любимую девушку… Именно в этот ... 10 10 3
Торрент: Зарегистрирован [2019-11-08 14:15] · скачан: 29 раз
Статус: √ проверено
Размер: 1.17 GB
Как cкачать? Как скачать Мой ангел через торрент | qTorrent

% Раздел Тема Автор DL S | L
Наши сериалы [ 1.04 GB ] Мой Ангел / Серии: 1-2 из 2 [2019 SATRip-AVC] aleksan55 Скачать
1 | 0

28-11-2019 20:33  

Отключить всю рекламу на сайте

    Дорогой пользователь! Огромная просьба, поблагодарите релизера, оцените раздачу и оставьте свои комментарий, если Вы скачали Мой ангел через торрент бесплатно! Внесите свою лепту в развитие PiratBit!
    Комментировать посты могут только пользователи прошедшие не сложную регистрацию
    Показать сообщения:    

    Мой ангел через торрент
    Скачать бесплатно Мой ангел
    Мой ангел скачать торрент
    Мой ангел смотреть онлайн
    Cкачать фильм Мой ангел бесплатно
    Мой ангел скачать торрент в хорошем качестве
    Мой ангел смотреть онлайн бесплатно в хорошем качестве


    Вы не можете начинать темы
    Вы не можете отвечать на сообщения
    Вы не можете редактировать свои сообщения
    Вы не можете удалять свои сообщения
    Вы не можете голосовать в опросах
    Вы не можете прикреплять файлы к сообщениям
    Вы можете скачивать файлы