Ссылка на приватное зеркало нашего сайта всего за 1$. Внимание количество ограничено!!!

2 сезон

iTunes

1 сезон

1

2 сезон

2 сезон

iTunes

1 сезон

RePack

30

Ultimate

ВАЖНО

ИГРА 18+

pack

RePack

MK11
pack

Забери бонус

RePack

jed

!!Акция!!

Alien_Rage

RePack

fifa19

RePack

Assassins Creed: Odyssey

RePack

NEED FOR SPEED™ PAYBACK

4 сезон

9 сезон

Бесстыжие 9 сезон

Все сериалы

все сериалы на PB.wtf

RePack

FAR CRY 5
  

Призрачный патруль / Deadtectives (Тони Уэст) [2018, ужасы, комедия, WEB-DL 720p] MVO [iTunes] pb.wtf

Призрачный патруль через торрент pb.wtf

Размер: 2.48 GB | Добавлен: 1 год назад | Торрент скачан:191 раз
Скачать  

08-11-2019 19:37 Призрачный патруль Скачать торрент  

Призрачный патруль / Deadtectives
Год выпуска: 2018
Страна: США
Студия: Bad Idea, BondIt Media Capital, Dark Factory Entertainment
Жанр: ужасы, комедия
Продолжительность: 01:32:03
Перевод: Профессиональный многоголосый | iTunes
Субтитры: Английские

Режиссер: Тони Уэст

rating

В ролях: Марта Игареда, Крис Гир, Тина Ивлев, Сеселия Антониетта, Хосе Мария Де Тавира, Дэвид Ньюман, Пабло Гиса Кёстингер, Нури Бланко, Эмилио Савинни, Марк Райли

Описание: Ведущие успешного телешоу «Призрачный патруль» прекрасно справляются с ролью умелых охотников за привидениями и прочей нечистью. До тех пор пока не оказываются в заброшенном особняке, полном паранормальных секретов. Как не опозориться перед поклонниками шоу и не умереть от страха?

Качество: WEB-DL 720p
Формат: MKV

Видео: MPEG-4 AVC, 3240 Kбит/с, 1280x720, 23.976 кадр/с
Аудио 1: AC3, 6 ch, 384 Kbps - Русский
Аудио 2: E-AC3, 2 ch, 224 Kbps - Английский
скриншот  скриншот  скриншот  скриншот  скриншот  

Источник: Deadtectives.2018.720p.AMZN.WEB-DL.DDP2.0.H.264-NTG
General
Unique ID : 179439018575495916477035019107331252816 (0x86FEB2AA01C8D2D8B1ACF786ADA8A250)
Complete name : Deadtectives.2018.AMZN.WEB-DL.720p.mkv
Format : Matroska
Format version : Version 4
File size : 2.48 GiB
Duration : 1 h 32 min
Overall bit rate : 3 850 kb/s
Encoded date : UTC 2019-11-08 17:21:42
Writing application : mkvmerge v7.1.0 ('Good Love') 64bit built on Jul 27 2014 13:06:55
Writing library : libebml v1.3.0 + libmatroska v1.4.1

Video
ID : 1
Format : AVC
Format/Info : Advanced Video Codec
Format profile : High@L3.1
Format settings : CABAC / 4 Ref Frames
Format settings, CABAC : Yes
Format settings, Reference fra : 4 frames
Codec ID : V_MPEG4/ISO/AVC
Duration : 1 h 32 min
Bit rate mode : Constant
Bit rate : 3 240 kb/s
Nominal bit rate : 6 000 kb/s
Width : 1 280 pixels
Height : 720 pixels
Display aspect ratio : 16:9
Frame rate mode : Constant
Frame rate : 23.976 (24000/1001) FPS
Color space : YUV
Chroma subsampling : 4:2:0
Bit depth : 8 bits
Scan type : Progressive
Bits/(Pixel*Frame) : 0.147
Stream size : 2.08 GiB (84%)
Language : English
Default : Yes
Forced : No
Color range : Limited
Color primaries : BT.709
Transfer characteristics : BT.709
Matrix coefficients : BT.709

Audio #1
ID : 2
Format : AC-3
Format/Info : Audio Coding 3
Commercial name : Dolby Digital
Codec ID : A_AC3
Duration : 1 h 31 min
Bit rate mode : Constant
Bit rate : 384 kb/s
Channel(s) : 6 channels
Channel layout : L R C LFE Ls Rs
Sampling rate : 48.0 kHz
Frame rate : 31.250 FPS (1536 SPF)
Compression mode : Lossy
Stream size : 253 MiB (10%)
Title : MVO | iTunes
Language : Russian
Service kind : Complete Main
Default : Yes
Forced : No

Audio #2
ID : 3
Format : E-AC-3
Format/Info : Enhanced AC-3
Commercial name : Dolby Digital Plus
Codec ID : A_EAC3
Duration : 1 h 32 min
Bit rate mode : Constant
Bit rate : 224 kb/s
Channel(s) : 2 channels
Channel layout : L R
Sampling rate : 48.0 kHz
Frame rate : 31.250 FPS (1536 SPF)
Compression mode : Lossy
Stream size : 148 MiB (6%)
Language : English
Service kind : Complete Main
Default : No
Forced : No

Text #1
ID : 4
Format : UTF-8
Codec ID : S_TEXT/UTF8
Codec ID/Info : UTF-8 Plain Text
Duration : 1 h 24 min
Bit rate : 55 b/s
Count of elements : 1249
Stream size : 34.5 KiB (0%)
Language : English
Default : No
Forced : No

Text #2
ID : 5
Format : UTF-8
Codec ID : S_TEXT/UTF8
Codec ID/Info : UTF-8 Plain Text
Duration : 1 h 25 min
Bit rate : 60 b/s
Count of elements : 1387
Stream size : 37.8 KiB (0%)
Title : SDH
Language : English
Default : No
Forced : No

pb.wtf



Скачать Призрачный патруль через торрент http://d.radikal.ru/d20/1911/d9/09efbff43f88.jpg Скачать фильм Призрачный патруль через торрент бесплантно в хорошем качестве Описание: Ведущие успешного телешоу «Призрачный патруль» прекрасно справляются с ролью умелых охотников за привидениями и прочей нечистью. ... 10 10 4
Торрент: Зарегистрирован [2019-11-08 19:37] · скачан: 191 раз
Статус: √ проверено
Размер: 2.48 GB
Как cкачать? Как скачать Призрачный патруль через торрент | qTorrent

% Раздел Тема Автор DL S | L
Фильмы (WEB-DL 720p, 1080p) [ 6.05 GB ] Призрачный патруль / Deadtectives [2018 WEB-DL 1080p] MVO bober100 Скачать
2 | 0
Фильмы 2018 [DVDrip, WEB-DLRip, HDrip] (DUB, MVO) [ 1.43 GB ] Призрачный патруль / Deadtectives [2018 WEB-DLRip] MVO bober100 Скачать
3 | 0

28-11-2019 20:33  

Отключить всю рекламу на сайте

    Дорогой пользователь! Огромная просьба, поблагодарите релизера, оцените раздачу и оставьте свои комментарий, если Вы скачали Призрачный патруль через торрент бесплатно! Внесите свою лепту в развитие PiratBit!
    Комментировать посты могут только пользователи прошедшие не сложную регистрацию
    Показать сообщения:    

    Призрачный патруль через торрент
    Скачать бесплатно Призрачный патруль
    Призрачный патруль скачать торрент
    Призрачный патруль смотреть онлайн
    Cкачать фильм Призрачный патруль бесплатно
    Призрачный патруль скачать торрент в хорошем качестве
    Призрачный патруль смотреть онлайн бесплатно в хорошем качестве


    Вы не можете начинать темы
    Вы не можете отвечать на сообщения
    Вы не можете редактировать свои сообщения
    Вы не можете удалять свои сообщения
    Вы не можете голосовать в опросах
    Вы не можете прикреплять файлы к сообщениям
    Вы можете скачивать файлы