Ссылка на приватное зеркало нашего сайта всего за 1$. Внимание количество ограничено!!!

2 сезон

iTunes

1 сезон

1

iTunes

iTunes

iTunes

1 сезон

RePack

30

ИГРА 18+

pack

ВАЖНО

!!Акция!!

Alien_RageХит недели

RePack

MK11
pack

Забери бонус

RePack

jed

!!Акция!!

Alien_Rage

RePack

fifa19

RePack

Assassins Creed: Odyssey

RePack

NEED FOR SPEED™ PAYBACK

4 сезон

9 сезон

Бесстыжие 9 сезон

Все сериалы

все сериалы на PB.wtf

RePack

FAR CRY 5
  

Расплата / Сезон: 1 / Серии: 1-8 из 8 (Дарья Полторацкая) [2019, Детектив, мелодрама, HDTVRip] pb.wtf

Расплата через торрент pb.wtf

Раздают: 2 [ 11 KB/s ]
Размер: 4.92 GB | Добавлен: 11 мес. назад | Торрент скачан:139 раз
Скачать  

08-11-2019 20:35 Расплата Скачать торрент  

Расплата
Год выпуска: 2019
Страна: Россия
Жанр: Детектив, мелодрама
Продолжительность: ~ 00:49:00
Субтитры: отсутствуют

Режиссер: Дарья Полторацкая



В ролях: Кирилл Кяро, Светлана Смирнова-Марцинкевич, Никита Панфилов, Татьяна Рыбинец, Никита Зверев, Владимир Стержаков, Валерий Афанасьев, Дмитрий Кривощапов, Нелли Уварова, Олег Метелев, Вячеслав Гасай, Михаил Кремер, Анна Карышева

Описание: Никита Долин отправляется на горнолыжный курорт. В гостинице он знакомится с соседями – четой Морозовых. Анна и Андрей Морозовы – обычная, на первый взгляд, пара с заурядными семейными проблемами. Но события приобретают неожиданный оборот. Вначале Анна совершает попытку самоубийства, и Никите приходится спасать ей жизнь. А вскоре происходит несчастный случай с Андреем – по странному стечению обстоятельств он слетает с трассы и оказывается в больнице. Трагические события и потрясения сближают Анну и Никиту. Случайное знакомство перерастает в курортный роман. Но было ли оно случайным? С каждым шагом простая история всё более запутывается, превращаясь в сложную паутину из тайн, игр и лжи…

Качество: HDTVRip
Формат: AVI

Видео: 720x400 (1.80:1), 25 fps, XviD build 73 ~1600 kbps avg, 0.22 bit/pixel
Аудио: 48 kHz, АС3, 2/0 (L,R), ~192 kbps avg
скриншот  скриншот  скриншот  скриншот  

General
Complete name : Downloads\01. Расплата..2019.HDTVRip.Files-x.avi.avi
Format : AVI
Format/Info : Audio Video Interleave
File size : 611 MiB
Duration : 47mn 24s
Overall bit rate : 1 801 Kbps
Writing application : VirtualDubMod 1.5.10.3 | www.virtualdub-fr.org || (build 2550/release)
Writing library : VirtualDubMod build 2550/release
Video #0
ID : 0
Format : MPEG-4 Visual
Format profile : Advanced Simple@L5
Format settings, BVOP : 1
Format settings, QPel : No
Format settings, GMC : No warppoints
Format settings, Matrix : Custom
Codec ID : XVID
Codec ID/Hint : XviD
Duration : 47mn 24s
Bit rate : 1 600 Kbps
Width : 720 pixels
Height : 400 pixels
Display aspect ratio : 16:9
Frame rate : 25.000 fps
Color space : YUV
Chroma subsampling : 4:2:0
Bit depth : 8 bits
Scan type : Progressive
Compression mode : Lossy
Bits/(Pixel*Frame) : 0.222
Stream size : 542 MiB (89%)
Writing library : XviD 73
Audio #1
ID : 1
Format : AC-3
Format/Info : Audio Coding 3
Mode extension : CM (complete main)
Format settings, Endianness : Big
Codec ID : 2000
Duration : 47mn 24s
Bit rate mode : Constant
Bit rate : 192 Kbps
Channel(s) : 2 channels
Channel positions : Front: L R
Sampling rate : 48.0 KHz
Bit depth : 16 bits
Compression mode : Lossy
Stream size : 65.1 MiB (11%)
Alignment : Split accross interleaves
Interleave, duration : 40 ms (1.00 video frame)
Interleave, preload duration : 500 ms

pb.wtf



Скачать Расплата через торрент https://c.radikal.ru/c12/1911/87/a21b2daea10c.jpg Скачать фильм Расплата через торрент бесплантно в хорошем качестве Описание: Никита Долин отправляется на горнолыжный курорт. В гостинице он знакомится с соседями – четой Морозовых. Анна и Андрей Морозовы – ... 9.2 10 5
Торрент: Зарегистрирован [2019-11-08 20:35] · скачан: 139 раз
Статус: √ проверено
Размер: 4.92 GB
Как cкачать? Как скачать Расплата через торрент | qTorrent

% Раздел Тема Автор DL S | L
Наши сериалы [ 10.09 GB ] Расплата / Сезон: 1 / Серии: 1-8 из 8 [2019 HDTVRip 720p] bober100 Скачать
1 | 0
Наши сериалы [ 5.99 GB ] Расплата / Сезон: 1 / Серии: 1-8 из 8 [2019 HDTVRip-AVC] bober100 Скачать
2 | 0
Наши сериалы [ 20.91 GB ] Расплата / Сезон: 1 / Серии: 1-8 из 8 [2019 HDTV 1080i] bober100 Скачать
1 | 0

28-11-2019 20:33  

Отключить всю рекламу на сайте

    Дорогой пользователь! Огромная просьба, поблагодарите релизера, оцените раздачу и оставьте свои комментарий, если Вы скачали Расплата через торрент бесплатно! Внесите свою лепту в развитие PiratBit!
    Комментировать посты могут только пользователи прошедшие не сложную регистрацию
    Показать сообщения:    

    Расплата через торрент
    Скачать бесплатно Расплата
    Расплата скачать торрент
    Расплата смотреть онлайн
    Cкачать фильм Расплата бесплатно
    Расплата скачать торрент в хорошем качестве
    Расплата смотреть онлайн бесплатно в хорошем качестве


    Вы не можете начинать темы
    Вы не можете отвечать на сообщения
    Вы не можете редактировать свои сообщения
    Вы не можете удалять свои сообщения
    Вы не можете голосовать в опросах
    Вы не можете прикреплять файлы к сообщениям
    Вы можете скачивать файлы