Ссылка на приватное зеркало всего за 1$. Внимание количество ограничено!!!

iTunes

1+1

iTunes

мы

WEB-DL

1

iTunes

Чернобыль

iTunes

Ральф против интернета

Лицензия

ПШазам

Лицензия

Оно 2

Лицензия

30
pack

Вам бонус

ВАЖНО

!!Акция!!

Alien_RageХит недели

RePack

Resident Evil 21

ИГРА 18+

pack

RePack

jed

!!Акция!!

Alien_Rage

RePack

fifa19

RePack

Assassins Creed: Odyssey

RePack

NEED FOR SPEED™ PAYBACK

3 сезон

9 сезон

Бесстыжие 9 сезон

Все сериалы

все сериалы на PB.wtf

RePack

FAR CRY 5
Ребята, катастрофически не хватает 1900р. для оплаты серверов за Октябрь (всвязи с блокировками трафик упал в 3 раза), 1-2р., выручайте.
  

Короли интриги / El Cuento de las Comadrejas (Хуан Хосе Кампанелья) [2019, Комедия, детектив, WEB-DLRip-AVC] MVO [iTunes] - OlLanDGroup pb.wtf

Короли интриги через торрент pb.wtf

Раздают: 7 [ 0 KB/s ]
Размер: 745 MB | Добавлен: 1 мес. 4 д. назад | Торрент скачан:93 раза
Скачать  

09-11-2019 08:22 Короли интриги Скачать торрент  

Короли интриги / El Cuento de las Comadrejas Год выпуска: 2019
Страна: Аргентина, Испания
Студия: 100 Bares, Instituto Nacional de Cine y Artes Audiovisuales (INCAA), Instituto de la Cinematografía y de las Artes Audiovisuales
Жанр: Комедия, детектив
Продолжительность: 02:08:51

Перевод: Профессиональный (многоголосый, закадровый) | iTunes
Субтитры: отсутствуют

Режиссер: Хуан Хосе Кампанелья

rating

В ролях: Грасиэла Борхес, Оскар Мартинес, Луис Брандони, Маркос Мандсток, Клара Лаго, Николас Франсельа, Лус Киприота, Мару Запата, Anwar Yoma, Мануэль Мартинес Собрадо

Описание: Мара Ортис, забытая всеми кинозвезда «золотой эпохи» ведет затворнический образ жизни в старинном особняке в пригороде Буэнос-Айреса. Свой кров актриса делит с экстравагантной компанией бывших свидетелей ее увядшей славы - влюбленным в нее супругом-актером эпизода, язвительным сценаристом и режиссером-циником. Отношения этой четверки далеки от совершенства: они балансируют между обожанием и неприязнью. Однажды в поместье появляются нежданные гости - молодая пара, положившая глаз на звездное поместье. Они притворяются поклонниками Мары и убеждают актрису продать дом. Однако на пути «акул бизнеса» встают мастера дьявольских интриг. Смертельный поединок начинается...

Качество: WEB-DLRip-AVC
Формат: MKV

Видео: 720x302 (2.40:1), 24 fps, x264 ~744 kbps avg, 0.143 bit/pixel
Аудио: 48 kHz, HE-AAC, 2 ch, ~64 kbps avg | RUS
General
Unique ID : 10697878604350182891004807936040395218 (0x80C562332445025CBA64D95B49661D2)
Complete name : D:\OlLanDGroup\El.Cuento.de.las.Comadrejas.WEB-DLRip(AVC).745Mb.OlLanDGroup.mkv
Format : Matroska
Format version : Version 4
File size : 745 MiB
Duration : 2 h 8 min
Overall bit rate : 809 kb/s
Movie name : El.Cuento.de.las.Comadrejas.WEB-DLRip(AVC).745Mb.OlLanDGroup#Skandar#
Encoded date : UTC 2019-11-09 08:03:58
Writing application : mkvmerge v31.0.0 ('Dolores In A Shoestand') 64-bit
Writing library : libebml v1.3.6 + libmatroska v1.4.9

Video
ID : 1
Format : AVC
Format/Info : Advanced Video Codec
Format profile : High@L4.1
Format settings : CABAC / 10 Ref Frames
Format settings, CABAC : Yes
Format settings, ReFrames : 10 frames
Codec ID : V_MPEG4/ISO/AVC
Duration : 2 h 8 min
Bit rate : 744 kb/s
Width : 720 pixels
Height : 302 pixels
Display aspect ratio : 2.40:1
Frame rate mode : Constant
Frame rate : 24.000 FPS
Color space : YUV
Chroma subsampling : 4:2:0
Bit depth : 8 bits
Scan type : Progressive
Bits/(Pixel*Frame) : 0.143
Stream size : 685 MiB (92%)
Title : El.Cuento.de.las.Comadrejas.WEB-DLRip(AVC).745Mb.OlLanDGroup#Skandar#
Writing library : x264 core 146 r2538 121396c
Encoding settings : cabac=1 / ref=10 / deblock=1:-3:-3 / analyse=0x3:0x133 / me=umh / subme=11 / psy=1 / psy_rd=0.97:0.05 / mixed_ref=1 / me_range=48 / chroma_me=1 / trellis=2 / 8x8dct=1 / cqm=0 / deadzone=21,11 / fast_pskip=0 / chroma_qp_offset=-3 / threads=6 / lookahead_threads=1 / sliced_threads=0 / nr=0 / decimate=0 / interlaced=0 / bluray_compat=0 / constrained_intra=0 / bframes=11 / b_pyramid=2 / b_adapt=2 / b_bias=0 / direct=3 / weightb=1 / open_gop=0 / weightp=2 / keyint=240 / keyint_min=23 / scenecut=40 / intra_refresh=0 / rc_lookahead=40 / rc=2pass / mbtree=0 / bitrate=744 / ratetol=1.0 / qcomp=0.60 / qpmin=0 / qpmax=69 / qpstep=4 / cplxblur=20.0 / qblur=0.5 / vbv_maxrate=50000 / vbv_bufsize=62500 / nal_hrd=none / filler=0 / ip_ratio=1.40 / pb_ratio=1.30 / aq=1:1.00
Language : Russian
Default : Yes
Forced : No

Audio
ID : 2
Format : AAC LC SBR
Format/Info : Advanced Audio Codec Low Complexity with Spectral Band Replication
Commercial name : HE-AAC
Format settings : Explicit
Codec ID : A_AAC-2
Duration : 2 h 8 min
Bit rate : 64.0 kb/s
Channel(s) : 2 channels
Channel layout : L R
Sampling rate : 48.0 kHz
Frame rate : 23.438 FPS (2048 SPF)
Compression mode : Lossy
Delay relative to video : 31 ms
Stream size : 59.0 MiB (8%)
Title : MVO (iTunes)
Language : Russian
Default : Yes
Forced : No

Menu
00:00:00.000 : en:Глава 1
00:06:35.500 : en:Глава 2
00:16:03.125 : en:Глава 3
00:24:44.500 : en:Глава 4
00:33:50.208 : en:Глава 5
00:42:01.499 : en:Глава 6
00:50:57.915 : en:Глава 7
00:57:23.748 : en:Глава 8
01:05:09.498 : en:Глава 9
01:13:51.873 : en:Глава 10
01:22:34.998 : en:Глава 11
01:31:08.831 : en:Глава 12
01:39:10.164 : en:Глава 13
01:47:56.830 : en:Глава 14
01:55:46.746 : en:Глава 15
Релиз от: pb.wtf



Скачать Короли интриги через торрент https://d.radikal.ru/d29/1911/d0/bbc03a40978b.png Скачать фильм Короли интриги через торрент бесплантно в хорошем качестве Описание: Мара Ортис, забытая всеми кинозвезда «золотой эпохи» ведет затворнический образ жизни в старинном особняке в пригороде ... 10 10 2
Info! Золотая раздача, скачанное не засчитывается.
Торрент: Зарегистрирован [2019-11-09 08:22] · скачан: 93 раз
Статус: √ проверено
Размер: 745 MB
Как cкачать? Как скачать Короли интриги через торрент | qTorrent

28-11-2019 20:33  

Отключить всю рекламу на сайте


    Дорогой пользователь! Огромная просьба, поблагодарите релизера, оцените раздачу и оставьте свои комментарий, если Вы скачали Короли интриги через торрент бесплатно! Внесите свою лепту в развитие PiratBit!
    Комментировать посты могут только пользователи прошедшие не сложную регистрацию
    Показать сообщения:    

    Короли интриги через торрент
    Скачать бесплатно Короли интриги
    Короли интриги скачать торрент
    Короли интриги смотреть онлайн
    Cкачать фильм Короли интриги бесплатно
    Короли интриги скачать торрент в хорошем качестве
    Короли интриги смотреть онлайн бесплатно в хорошем качестве


    Вы не можете начинать темы
    Вы не можете отвечать на сообщения
    Вы не можете редактировать свои сообщения
    Вы не можете удалять свои сообщения
    Вы не можете голосовать в опросах
    Вы не можете прикреплять файлы к сообщениям
    Вы можете скачивать файлы