Всегда рабочее зеркало без VPN и Proxy просто перед .vidak.icu напиши любое слово или цифру, Пример http://y4v8.vidak.icu

MVO

2 сезон

2 сезон

1

1 сезон

iTunes

2 сезон

13

1 сезон

Распродажа

pack

Рекомендуем

Пиратка

30

ВАЖНО

RePack

MK11

RePack

jed

RePack

fifa19

RePack

RDR2

RePack

NEED FOR SPEED™ PAYBACK

Кинопоиск HD

6 сезон

 Острые козырьки 6 сезон

Все сериалы

все сериалы на PB.wtf

RePack

FAR CRY 5

Anonymous, нам критически не хватает 5601 руб. на оплату серверов и переферии за Апрель, помоги нам пожалуйста, вся надежда только на тебя. В благодарность мы отключим тебе всю рекламу на сайте!

×
  
Magnet ссылка

Время / In Time (Эндрю Никкол) [2011, фантастика, триллер, драма, криминал, BDRip-HEVC 1080p] DUB + AVO - KORSAR pb.wtf

Время через торрент pb.wtf

Размер: 7.45 GB | Добавлен: 2 года 6 мес. назад | Торрент скачан:289 раз
Смотреть онлайн Время | Скачать    Ребята, помогите собрать деньги на оплату серверов!!!

09-11-2019 11:02 Время Скачать торрент  

Время / In Time
Год выпуска: 2011
Страна: США
Жанр: Фантастика, триллер, драма, криминал
Продолжительность: 01:49:16
Перевод: Дублированный, авторский одноголосый
Субтитры: Русские, английские
Режиссёр: Эндрю Никкол
В ролях: Джастин Тимберлейк, Аманда Сайфред, Киллиан Мёрфи, Алекс Петтифер, Винсент Картайзер, Оливия Уайлд, Мэтт Бомер, Джонни Галэки, Коллинз Пенни, Итан Пек, Шайло Уствальд, Колин МакГерк, Уилл Харрис
Описание: Добро пожаловать в мир, где время стало единственной и самой твердой валютой, где люди генетически запрограммированы так, что в 25 лет перестают стареть. Правда, последующие годы стоят денег. И вот богатые становятся практически бессмертными, а бедные, как всегда, обречены сражаться за жизнь. Уилл, бунтарь из гетто, несправедливо обвинен в убийстве с целью грабежа времени и вынужден, захватив заложницу, пуститься в бега. Так, ежеминутно рискуя жизнью, эти двое становятся грозным оружием в борьбе с системой.

rating

Качество: BDRip-HEVC 1080p
Формат: MKV
Видео: HEVC, 1920x816 (2.35:1), 7197 Кбит/сек, 23.976 Кадр/сек
Аудио 1: Russian: 48 kHz, AC3, 5.1 ch, 640 kbps - DUB, Blu-Ray
Аудио 2: Russian: 48 kHz, AC3, 5.1 ch, 640 kbps - AVO, Ю. Сербин
Аудио 3: Russian: 48 kHz, AC3, 5.1 ch, 640 kbps - AVO, А. Гаврилов
Аудио 4: English: 48 kHz, AC3, 5.1 ch, 640 kbps - Оригинал

Релиз от:


  • x265 [info]: frame I: 1701, Avg QP:14.92 kb/s: 23221.00
  • x265 [info]: frame P: 26968, Avg QP:16.10 kb/s: 14015.91
  • x265 [info]: frame B: 128536, Avg QP:18.03 kb/s: 5552.75

    ===============================================

    Общее
    Уникальный идентификатор : 301161971782259031566339527709809186887 (0xE291AF9ADA4EA957471DF7E2960C1847)
    Полное имя : Время.2011.BDRip-HEVC.1080p.KORSAR.mkv
    Формат : Matroska
    Версия формата : Version 4 / Version 2
    Размер файла : 7,45 Гбайт
    Продолжительность : 1 ч. 49 м.
    Общий поток : 9759 Кбит/сек
    Название фильма : Время - In Time (Rip by DSIO)
    Дата кодирования : UTC 2018-10-18 14:24:11
    Программа кодирования : mkvmerge v25.0.0 ('Prog Noir') 64-bit
    Библиотека кодирования : libebml v1.3.6 + libmatroska v1.4.9
    Обложка : Yes

    Видео
    Идентификатор : 8
    Формат : HEVC
    Формат/Информация : High Efficiency Video Coding
    Профиль формата : Main 10@L5.1@High
    Идентификатор кодека : V_MPEGH/ISO/HEVC
    Продолжительность : 1 ч. 49 м.
    Битрейт : 7197 Кбит/сек
    Ширина : 1920 пикселей
    Высота : 816 пикселей
    Соотношение сторон : 2,35:1
    Режим частоты кадров : Постоянный
    Частота кадров : 23,976 (24000/1001) кадра/сек
    Цветовое пространство : YUV
    Субдискретизация насыщенности : 4:2:0
    Битовая глубина : 10 бит
    Бит/(Пиксели*Кадры) : 0.192
    Размер потока : 5,49 Гбайт (74%)
    Библиотека кодирования : x265 2.9+1-169e76b6bbcc:[Windows][GCC 8.2.0][64 bit] 10bit
    Настройки программы : cpuid=1176575 / frame-threads=4 / numa-pools=16 / wpp / no-pmode / no-pme / no-psnr / no-ssim / log-level=2 / input-csp=1 / input-res=1920x816 / interlace=0 / total-frames=0 / level-idc=51 / high-tier=1 / uhd-bd=0 / ref=5 / no-allow-non-conformance / no-repeat-headers / annexb / no-aud / no-hrd / info / hash=0 / no-temporal-layers / open-gop / min-keyint=23 / keyint=250 / gop-lookahead=0 / bframes=13 / b-adapt=2 / b-pyramid / bframe-bias=0 / rc-lookahead=60 / lookahead-slices=4 / scenecut=40 / radl=0 / no-intra-refresh / ctu=64 / min-cu-size=8 / rect / amp / max-tu-size=32 / tu-inter-depth=2 / tu-intra-depth=2 / limit-tu=4 / rdoq-level=2 / dynamic-rd=0.00 / no-ssim-rd / signhide / no-tskip / nr-intra=0 / nr-inter=0 / no-constrained-intra / no-strong-intra-smoothing / max-merge=3 / limit-refs=2 / limit-modes / me=3 / subme=7 / merange=64 / temporal-mvp / weightp / weightb / no-analyze-src-pics / deblock=-2:-2 / no-sao / no-sao-non-deblock / rd=6 / no-early-skip / rskip / no-fast-intra / no-tskip-fast / no-cu-lossless / b-intra / no-splitrd-skip / rdpenalty=0 / psy-rd=2.00 / psy-rdoq=1.00 / no-rd-refine / no-lossless / cbqpoffs=0 / crqpoffs=0 / rc=crf / crf=18.0 / qcomp=0.70 / qpstep=4 / stats-write=0 / stats-read=0 / vbv-maxrate=78125 / vbv-bufsize=62500 / vbv-init=0.9 / crf-max=0.0 / crf-min=0.0 / ipratio=1.40 / pbratio=1.30 / aq-mode=1 / aq-strength=0.70 / no-cutree / zone-count=0 / no-strict-cbr / qg-size=32 / no-rc-grain / qpmax=69 / qpmin=0 / no-const-vbv / sar=0 / overscan=0 / videoformat=5 / range=0 / colorprim=9 / transfer=16 / colormatrix=1 / chromaloc=0 / display-window=0 / max-cll=0,0 / min-luma=0 / max-luma=1023 / log2-max-poc-lsb=8 / vui-timing-info / vui-hrd-info / slices=1 / no-opt-qp-pps / no-opt-ref-list-length-pps / no-multi-pass-opt-rps / scenecut-bias=0.05 / no-opt-cu-delta-qp / no-aq-motion / no-hdr / no-hdr-opt / no-dhdr10-opt / no-idr-recovery-sei / analysis-reuse-level=5 / scale-factor=0 / refine-intra=0 / refine-inter=0 / refine-mv=0 / no-limit-sao / ctu-info=0 / no-lowpass-dct / refine-mv-type=0 / copy-pic=1 / max-ausize-factor=1.0 / no-dynamic-refine / no-single-sei
    Default : Да
    Forced : Да
    Цветовой диапазон : Limited
    Основные цвета : BT.2020
    Характеристики трансфера : PQ
    Коэффициенты матрицы : BT.709

    Аудио #1
    Идентификатор : 1
    Формат : AC-3
    Формат/Информация : Audio Coding 3
    Идентификатор кодека : A_AC3
    Продолжительность : 1 ч. 49 м.
    Вид битрейта : Постоянный
    Битрейт : 640 Кбит/сек
    Каналы : 6 каналов
    Расположение каналов : Front: L C R, Side: L R, LFE
    Частота : 48,0 КГц
    Частота кадров : 31,250 кадров/сек (1536 SPF)
    Битовая глубина : 16 бит
    Метод сжатия : С потерями
    Размер потока : 500 Мбайт (7%)
    Заголовок : Дублированный
    Язык : Russian
    Default : Да
    Forced : Нет

    Аудио #2
    Идентификатор : 2
    Формат : AC-3
    Формат/Информация : Audio Coding 3
    Идентификатор кодека : A_AC3
    Продолжительность : 1 ч. 49 м.
    Вид битрейта : Постоянный
    Битрейт : 640 Кбит/сек
    Каналы : 6 каналов
    Расположение каналов : Front: L C R, Side: L R, LFE
    Частота : 48,0 КГц
    Частота кадров : 31,250 кадров/сек (1536 SPF)
    Битовая глубина : 16 бит
    Метод сжатия : С потерями
    Размер потока : 500 Мбайт (7%)
    Заголовок : Одноголосый закадровый | Сербин
    Язык : Russian
    Default : Нет
    Forced : Нет

    Аудио #3
    Идентификатор : 3
    Формат : AC-3
    Формат/Информация : Audio Coding 3
    Идентификатор кодека : A_AC3
    Продолжительность : 1 ч. 49 м.
    Вид битрейта : Постоянный
    Битрейт : 640 Кбит/сек
    Каналы : 6 каналов
    Расположение каналов : Front: L C R, Side: L R, LFE
    Частота : 48,0 КГц
    Частота кадров : 31,250 кадров/сек (1536 SPF)
    Битовая глубина : 16 бит
    Метод сжатия : С потерями
    Размер потока : 500 Мбайт (7%)
    Заголовок : Одноголосый закадровый | Гаврилов
    Язык : Russian
    Default : Нет
    Forced : Нет

    Аудио #4
    Идентификатор : 4
    Формат : AC-3
    Формат/Информация : Audio Coding 3
    Идентификатор кодека : A_AC3
    Продолжительность : 1 ч. 49 м.
    Вид битрейта : Постоянный
    Битрейт : 640 Кбит/сек
    Каналы : 6 каналов
    Расположение каналов : Front: L C R, Side: L R, LFE
    Частота : 48,0 КГц
    Частота кадров : 31,250 кадров/сек (1536 SPF)
    Битовая глубина : 16 бит
    Метод сжатия : С потерями
    Размер потока : 500 Мбайт (7%)
    Язык : English
    Default : Нет
    Forced : Нет

    Текст #1
    Идентификатор : 5
    Формат : UTF-8
    Идентификатор кодека : S_TEXT/UTF8
    Идентификатор кодека/Информация : UTF-8 Plain Text
    Продолжительность : 1 ч. 27 м.
    Битрейт : 1 бит/сек
    ElementCount : 18
    Размер потока : 801 байт (0%)
    Заголовок : Русский (Force)
    Язык : Russian
    Default : Да
    Forced : Нет

    Текст #2
    Идентификатор : 6
    Формат : UTF-8
    Идентификатор кодека : S_TEXT/UTF8
    Идентификатор кодека/Информация : UTF-8 Plain Text
    Продолжительность : 1 ч. 41 м.
    Битрейт : 61 бит/сек
    ElementCount : 1060
    Размер потока : 46,0 Кбайт (0%)
    Заголовок : Русский
    Язык : Russian
    Default : Нет
    Forced : Нет

    Текст #3
    Идентификатор : 7
    Формат : UTF-8
    Идентификатор кодека : S_TEXT/UTF8
    Идентификатор кодека/Информация : UTF-8 Plain Text
    Продолжительность : 1 ч. 41 м.
    Битрейт : 41 бит/сек
    ElementCount : 1118
    Размер потока : 30,7 Кбайт (0%)
    Язык : English
    Default : Нет
    Forced : Нет

    Меню
    00:00:00.000 : en:Chapter 1
    00:05:54.271 : en:Chapter 2
    00:10:50.733 : en:Chapter 3
    00:18:58.095 : en:Chapter 4
    00:22:16.377 : en:Chapter 5
    00:25:30.446 : en:Chapter 6
    00:29:51.915 : en:Chapter 7
    00:34:41.746 : en:Chapter 8
    00:38:24.886 : en:Chapter 9
    00:41:23.898 : en:Chapter 10
    00:44:44.724 : en:Chapter 11
    00:48:08.302 : en:Chapter 12
    00:51:32.548 : en:Chapter 13
    00:53:56.150 : en:Chapter 14
    00:56:16.873 : en:Chapter 15
    01:00:25.372 : en:Chapter 16
    01:05:41.146 : en:Chapter 17
    01:08:57.800 : en:Chapter 18
    01:11:19.484 : en:Chapter 19
    01:14:05.107 : en:Chapter 20
    01:16:48.979 : en:Chapter 21
    01:20:20.983 : en:Chapter 22
    01:22:44.293 : en:Chapter 23
    01:27:17.107 : en:Chapter 24
    01:29:22.399 : en:Chapter 25
    01:33:26.017 : en:Chapter 26
    01:37:16.956 : en:Chapter 27
    01:42:56.462 : en:Chapter 28
  • pb.wtf



    Скачать Время через торрент https://i5.imageban.ru/out/2019/11/09/4b71cd1f509a7a3f7178703c67e7b445.png Скачать, смотреть онлайн Время бесплантно в хорошем качестве Описание: Добро пожаловать в мир, где время стало единственной и самой твердой валютой, где люди генетически запрограммированы так, что в ... 8.9 10 9
    Торрент: Зарегистрирован [2019-11-09 11:02] · скачан: 289 раз
    Статус: √ проверено
    Размер: 7.45 GB
    Как cкачать? Как скачать Время через торрент | UTorrent

    28-11-2019 20:33  

    Отключить всю рекламу на сайте

    11-11-2019 17:13 Время Скачать торрент  

    очень понравился фильмpb.wtf



      Дорогой пользователь! Огромная просьба, поблагодарите релизера, оцените раздачу и оставьте свои комментарий, если Вы скачали Время через торрент бесплатно!
      Комментировать посты могут только пользователи прошедшие не сложную регистрацию
      Показать сообщения:    

      Время через торрент
      Скачать бесплатно Время
      Время скачать торрент
      Время смотреть онлайн
      Cкачать фильм Время бесплатно
      Время скачать торрент в хорошем качестве
      Время смотреть онлайн бесплатно в хорошем качестве


      Вы не можете начинать темы
      Вы не можете отвечать на сообщения
      Вы не можете редактировать свои сообщения
      Вы не можете удалять свои сообщения
      Вы не можете голосовать в опросах
      Вы не можете прикреплять файлы к сообщениям
      Вы можете скачивать файлы