новый адрес
Ссылка на приватное зеркало всего за 1$. Внимание количество ограничено!!!

iTunes

1+1

iTunes

мы

iTunes

1

iTunes

Чернобыль

iTunes

Ральф против интернета

Лицензия

ПШазам

Лицензия

Оно 2

Лицензия

30
pack

Вам бонус

ВАЖНО

!!Акция!!

Alien_RageХит недели

RePack

Resident Evil 21

ИГРА 18+

pack

RePack

jed

!!Акция!!

Alien_Rage

RePack

fifa19

RePack

Assassins Creed: Odyssey

RePack

NEED FOR SPEED™ PAYBACK

3 сезон

9 сезон

Бесстыжие 9 сезон

Все сериалы

все сериалы на PB.wtf

RePack

FAR CRY 5
Ребята, катастрофически не хватает 1900р. для оплаты серверов за Октябрь (всвязи с блокировками трафик упал в 3 раза), 1-2р., выручайте.
  

Офелия / Ophelia (Клэр Маккарти) [2018 г., мелодрама, история, BDRip, Профессиональный (многоголосый)] pb.wtf

Офелия через торрент pb.wtf

Раздают: 1 [ 0 KB/s ]
Размер: 2.18 GB | Добавлен: 26 д. назад | Торрент скачан:20 раз
Скачать  

09-11-2019 14:57 Офелия Скачать торрент  

Офелия / Ophelia

Год выпуска: 2018
Страна: Великобритания, США
Жанр: мелодрама, история
Продолжительность: 01:46:18
Перевод: Профессиональный (многоголосый)
Субтитры: Английские (отдельно)
Режиссер: Клэр Маккарти
rating
В ролях: Дэйзи Ридли, Наоми Уоттс, Том Фелтон, Клайв Оуэн, Джордж МакКэй, Дэйзи Хэд, Себастьян де Соуса, Доминик Мафэм, Девон Террелл, Анна Раст
Описание: Темные времена настали в королевстве. Правитель мертв, а его трон занял самозванец и убийца. Гамлет, законный наследник престола, клянется отомстить за отца. Сердце принца способна смягчить лишь прекрасная Офелия. Ради него она готова оставить двор и пойти против тирана. Но cмогут ли их чувства преодолеть саму смерть?
Качество: BDRip
Формат: AVI
Видео кодек: XviD
Аудио кодек: AC3
Видео: 720x304, 23.976 fps, 1778 Кбит/с
Аудио#1: 384 Кбит/с, 6 ch, 48.0 KHz [Russian) | [iTunes]
Аудио#2: 384 Кбит/с, 6 ch, 48.0 KHz [Russian | [СВ Студия]
Аудио#3: 384 Кбит/с, 6 ch, 48.0 KHz [English]


Общее
Полное имя : Офелия_2018_BDRip\Офелия_2018_BDRip.avi
Формат : AVI
Формат/Информация : Audio Video Interleave
Профиль формата : OpenDML
Размер файла : 2,18 Гбайт
Продолжительность : 1 ч. 46 м.
Общий поток : 2937 Кбит/сек
Название фильма : Офелия_2018_BDRip
Программа кодирования : VirtualDubMod 1.5.10.3 | www.virtualdub-fr.org || (build 2550/release)
Авторское право : порошков

Видео
Идентификатор : 0
Формат : MPEG-4 Visual
Профиль формата : Advanced Simple@L5
Настройки формата : BVOP1 / Custom Matrix
Параметр BVOP формата : 1
Параметр QPel формата : Нет
Параметр GMC формата : Без точки перехода
Параметр матрицы формата : Выборочная
Идентификатор кодека : XVID
Идентификатор кодека/Подсказка : XviD
Продолжительность : 1 ч. 46 м.
Битрейт : 1762 Кбит/сек
Ширина : 720 пикселей
Высота : 304 пикселя
Соотношение сторон : 2,35:1
Частота кадров : 23,976 (24000/1001) кадра/сек
Цветовое пространство : YUV
Субдискретизация насыщенности : 4:2:0
Битовая глубина : 8 бит
Тип развёртки : Прогрессивная
Метод сжатия : С потерями
Бит/(Пиксели*Кадры) : 0.336
Размер потока : 1,31 Гбайт (60%)
Библиотека кодирования : XviD 73

Аудио #1
Идентификатор : 1
Формат : AC-3
Формат/Информация : Audio Coding 3
Коммерческое название : Dolby Digital
Идентификатор кодека : 2000
Продолжительность : 1 ч. 46 м.
Вид битрейта : Постоянный
Битрейт : 384 Кбит/сек
Каналы : 6 каналов
ChannelLayout : L R C LFE Ls Rs
Частота : 48,0 КГц
Частота кадров : 31,250 кадров/сек (1536 SPF)
Метод сжатия : С потерями
Размер потока : 292 Мбайт (13%)
Выравнивание : Разделение по промежуткам
Продолжительность промежутка : 42 мс. (1,00 видеокадр)
Время предзагрузки промежутка : 500 мс.
Заголовок : DUB
ServiceKind/String : Complete Main

Аудио #2
Идентификатор : 2
Формат : AC-3
Формат/Информация : Audio Coding 3
Коммерческое название : Dolby Digital
Идентификатор кодека : 2000
Продолжительность : 1 ч. 46 м.
Вид битрейта : Постоянный
Битрейт : 384 Кбит/сек
Каналы : 6 каналов
ChannelLayout : L R C LFE Ls Rs
Частота : 48,0 КГц
Частота кадров : 31,250 кадров/сек (1536 SPF)
Метод сжатия : С потерями
Размер потока : 292 Мбайт (13%)
Выравнивание : Разделение по промежуткам
Продолжительность промежутка : 42 мс. (1,00 видеокадр)
Время предзагрузки промежутка : 500 мс.
Заголовок : MVO
ServiceKind/String : Complete Main

Аудио #3
Идентификатор : 3
Формат : AC-3
Формат/Информация : Audio Coding 3
Коммерческое название : Dolby Digital
Идентификатор кодека : 2000
Продолжительность : 1 ч. 46 м.
Вид битрейта : Постоянный
Битрейт : 384 Кбит/сек
Каналы : 6 каналов
ChannelLayout : L R C LFE Ls Rs
Частота : 48,0 КГц
Частота кадров : 31,250 кадров/сек (1536 SPF)
Метод сжатия : С потерями
Размер потока : 292 Мбайт (13%)
Выравнивание : Разделение по промежуткам
Продолжительность промежутка : 42 мс. (1,00 видеокадр)
Время предзагрузки промежутка : 500 мс.
Заголовок : ENG
ServiceKind/String : Complete Main

pb.wtf



Скачать Офелия через торрент http://pic1.kartinco.top/images/12/gtw82.jpg Скачать фильм Офелия через торрент бесплантно в хорошем качестве Описание: Темные времена настали в королевстве. Правитель мертв, а его трон занял самозванец и убийца. Гамлет, законный наследник престола, ... 10 10 1
Торрент: Зарегистрирован [2019-11-09 14:57] · скачан: 20 раз
Статус: √ проверено
Размер: 2.18 GB
Как cкачать? Как скачать Офелия через торрент | qTorrent

% Раздел Тема Автор DL S | L
Фильмы 2018 [DVDrip, WEB-DLRip, HDrip] (DUB, MVO) [ 746 MB ] Офелия / Ophelia [2019 Мело история BDRip-AVC] - OlLanDGroup Skandar2019 Скачать
3 | 0
Фильмы (WEB-DL 720p, 1080p) [ 5.81 GB ] Офелия / Ophelia [2018 история WEB-DL 1080p] bober100 Скачать
2 | 0
Фильмы (WEB-DL 720p, 1080p) [ 3.27 GB ] Офелия / Ophelia [2018 история WEB-DL 720p] bober100 Скачать
1 | 0
Фильмы 2018 [DVDrip, WEB-DLRip, HDrip] (DUB, MVO) [ 1.46 GB ] Офелия / Ophelia [2018 история WEB-DLRip] bober100 Скачать
3 | 0
Фильмы (WEB-DL 720p, 1080p) [ 6 GB ] Офелия / Ophelia [2018 Мело история WEB-DL 1080p] [MVO] killermax2013 Скачать
1 | 0
Отключить всю рекламу на сайте
    Дорогой пользователь! Огромная просьба, поблагодарите релизера, оцените раздачу и оставьте свои комментарий, если Вы скачали Офелия через торрент бесплатно! Внесите свою лепту в развитие PiratBit!
    Комментировать посты могут только пользователи прошедшие не сложную регистрацию
    Показать сообщения:    

    Офелия через торрент
    Скачать бесплатно Офелия
    Офелия скачать торрент
    Офелия смотреть онлайн
    Cкачать фильм Офелия бесплатно
    Офелия скачать торрент в хорошем качестве
    Офелия смотреть онлайн бесплатно в хорошем качестве


    Вы не можете начинать темы
    Вы не можете отвечать на сообщения
    Вы не можете редактировать свои сообщения
    Вы не можете удалять свои сообщения
    Вы не можете голосовать в опросах
    Вы не можете прикреплять файлы к сообщениям
    Вы можете скачивать файлы