Всегда рабочее зеркало без VPN и Proxy просто перед .vidak.icu напиши любое слово или цифру, Пример http://hdlm.vidak.icu

MVO

2 сезон

2 сезон

1

1 сезон

iTunes

2 сезон

13

1 сезон

Deluxe

pack

Рекомендуем

Пиратка

30

ВАЖНО

RePack

MK11

RePack

jed

RePack

fifa19

RePack

RDR2

RePack

NEED FOR SPEED™ PAYBACK

Кинопоиск HD

6 сезон

 Острые козырьки 6 сезон

Все сериалы

все сериалы на PB.wtf

RePack

FAR CRY 5

Anonymous, нам критически не хватает 5601 руб. на оплату серверов и переферии за Апрель, помоги нам пожалуйста, вся надежда только на тебя. В благодарность мы отключим тебе всю рекламу на сайте!

×
  
Magnet ссылка

Поцелуй дракона / Kiss of the Dragon (Крис Наон) [2001 г., боевик, триллер, драма, криминал, HDRip | КПК от R.G.Resident] DUB pb.wtf

Поцелуй дракона через торрент pb.wtf

Размер: 376 MB | Добавлен: 2 года 6 мес. назад | Торрент скачан:15 раз
Смотреть онлайн Поцелуй дракона | Скачать    Ребята, помогите собрать деньги на оплату серверов!!!

09-11-2019 19:21 Поцелуй дракона Скачать торрент  

Поцелуй дракона / Kiss of the DragonСлоган: «Kiss Fear Goodbye»

Год выпуска: 2001
Страна: Франция, США
Жанр: боевик, триллер, драма, криминал

Продолжительность: 01:38:15
Перевод: Дубляж
Субтитры: Нет

Режиссёр: Крис Наон
В ролях: Джет Ли, Бриджит Фонда, Чеки Карио, Макс Райан, Рик Янг, Берт Квук, Лоуренс Эшли, Сирил Раффаэлли, Дидье Азулай, Джон Форджэм

Описание: Офицер китайской разведки приезжает из Гонконга в Париж, чтобы участвовать в опасной операции, цель которой — заманить в ловушку и взять с поличным крупного наркобарона. Но дела идут совершенно непредсказуемо.
Герой попадает в двойную ловушку и становится подозреваемым в убийстве c неопровержимыми уликами против него. Его жизнь теперь зависит от того, сумеет ли он уйти от преследования и доказать свою невиновность.



Релиз от:
Рип от: Страна

Качество: HDRip
Формат: MP4
Видео кодек: AVC
Аудио кодек: AAC
Видео: 480x200, 23,976 fps, 400 kbps
Аудио: 2 ch, 48,0 kHz, 128 Kbps
Общее
Полное имя : D:\Кино\Поцелуй дракона.mp4
Формат : MPEG-4
Профиль формата : Base Media
Идентификатор кодека : isom (isom/avc1)
Размер файла : 376 Мбайт
Продолжительность : 1 ч. 38 м.
Режим общего битрейта : Переменный
Общий поток : 535 Кбит/сек
Дата кодирования : UTC 2019-11-08 15:14:18
Дата пометки : UTC 2019-11-08 15:14:18

Видео
Идентификатор : 1
Формат : AVC
Формат/Информация : Advanced Video Codec
Профиль формата : High@L2
Настройки формата : CABAC / 8 Ref Frames
Параметр CABAC формата : Да
Параметр RefFrames формата : 8 кадров
Идентификатор кодека : avc1
Идентификатор кодека/Информация : Advanced Video Coding
Продолжительность : 1 ч. 38 м.
Битрейт : 400 Кбит/сек
Максимальный битрейт : 1583 Кбит/сек
Ширина : 480 пикселей
Высота : 200 пикселей
Соотношение сторон : 2,40:1
Режим частоты кадров : Постоянный
Частота кадров : 23,976 (24000/1001) кадра/сек
Цветовое пространство : YUV
Субдискретизация насыщенности : 4:2:0
Битовая глубина : 8 бит
Тип развёртки : Прогрессивная
Бит/(Пиксели*Кадры) : 0.174
Размер потока : 281 Мбайт (75%)
Библиотека кодирования : x264 core 65 r999kMod cc51047
Настройки программы : cabac=1 / ref=8 / deblock=1:0:0 / analyse=0x3:0x133 / me=umh / subme=8 / psy_rd=1.0:0.0 / mixed_ref=1 / me_range=24 / chroma_me=1 / trellis=1 / 8x8dct=1 / cqm=0 / deadzone=21,11 / chroma_qp_offset=-2 / threads=4 / thread_queue=4 / nr=0 / decimate=1 / mbaff=0 / bframes=8 / b_pyramid=0 / b_adapt=1 / b_bias=0 / direct=3 / wpredb=1 / keyint=250 / keyint_min=25 / scenecut=40(pre) / rc=2pass / bitrate=400 / ratetol=1.0 / qcomp=0.60 / qpmin=10 / qpmax=51 / qpstep=4 / cplxblur=20.0 / qblur=0.5 / ip_ratio=1.40 / pb_ratio=1.30 / aq=1:1.00
Дата кодирования : UTC 2019-11-08 15:14:18
Дата пометки : UTC 2019-11-08 15:14:25
Codec configuration box : avcC

Аудио
Идентификатор : 2
Формат : AAC LC
Формат/Информация : Advanced Audio Codec Low Complexity
Идентификатор кодека : mp4a-40-2
Продолжительность : 1 ч. 38 м.
Вид битрейта : Переменный
Битрейт : 132 Кбит/сек
Максимальный битрейт : 137 Кбит/сек
Каналы : 2 канала
ChannelLayout : L R
Частота : 48,0 КГц
Частота кадров : 46,875 кадров/сек (1024 SPF)
Метод сжатия : С потерями
Размер потока : 92,3 Мбайт (25%)
Дата кодирования : UTC 2019-11-08 15:14:24
Дата пометки : UTC 2019-11-08 15:14:25
pb.wtf



Скачать Поцелуй дракона через торрент https://i111.fastpic.ru/big/2019/1109/5d/11eebe83226423ee48c25799d156895d.png Скачать, смотреть онлайн Поцелуй дракона бесплантно в хорошем качестве Описание: Офицер китайской разведки приезжает из а в Париж, чтобы участвовать в опасной операции, цель которой — заманить в ловушку ... 8.5 10 6
Info! Золотая раздача, скачанное не засчитывается.
Торрент: Зарегистрирован [2019-11-09 19:21] · скачан: 15 раз
Статус: √ проверено
Размер: 376 MB
Как cкачать? Как скачать Поцелуй дракона через торрент | UTorrent

% Раздел Тема Автор DL S | L
Фильмы [HD 720p, 1080p] (Хороший звук DUB, MVO) [ 10.26 GB ] Поцелуй дракона / Kiss of the Dragon [2001 BDRip 1080p] [DUB+MVO+3xAVO] Russian Mafia Скачать
1 | 0
Фильмы [HD 720p, 1080p] (Хороший звук DUB, MVO) [ 4.35 GB ] Поцелуй Дракона / Kiss of the Dragon [2001 BDRip 720p] DUB+MVO+AVO Ворон Скачать
1 | 0
Фильмы 2001-2005 [ 1.45 GB ] Поцелуй дракона / Kiss of the Dragon [2001 HDRip-AVC] DUB stalonе Скачать
1 | 0

28-11-2019 20:33  

Отключить всю рекламу на сайте

    Дорогой пользователь! Огромная просьба, поблагодарите релизера, оцените раздачу и оставьте свои комментарий, если Вы скачали Поцелуй дракона через торрент бесплатно!
    Комментировать посты могут только пользователи прошедшие не сложную регистрацию
    Показать сообщения:    

    Поцелуй дракона через торрент
    Скачать бесплатно Поцелуй дракона
    Поцелуй дракона скачать торрент
    Поцелуй дракона смотреть онлайн
    Cкачать фильм Поцелуй дракона бесплатно
    Поцелуй дракона скачать торрент в хорошем качестве
    Поцелуй дракона смотреть онлайн бесплатно в хорошем качестве


    Вы не можете начинать темы
    Вы не можете отвечать на сообщения
    Вы не можете редактировать свои сообщения
    Вы не можете удалять свои сообщения
    Вы не можете голосовать в опросах
    Вы не можете прикреплять файлы к сообщениям
    Вы можете скачивать файлы