Ссылка на приватное зеркало нашего сайта всего за 1$. Внимание количество ограничено!!!

2 сезон

iTunes

1 сезон

1

2 сезон

2 сезон

iTunes

1 сезон

RePack

30

Новинка

ВАЖНО

ИГРА 18+

pack

RePack

MK11
pack

Забери бонус

RePack

jed

!!Акция!!

Alien_Rage

RePack

fifa19

RePack

Assassins Creed: Odyssey

RePack

NEED FOR SPEED™ PAYBACK

4 сезон

9 сезон

Бесстыжие 9 сезон

Все сериалы

все сериалы на PB.wtf

RePack

FAR CRY 5
  

Охотники на ведьм / Zlogonje / The Witch Hunters (Раско Милькович) [2018 г., фэнтези, драма, приключения, семейный, HDTVRip, Любительский (одноголосый)] pb.wtf

Охотники на ведьм через торрент pb.wtf

Размер: 1.46 GB | Добавлен: 1 год назад | Торрент скачан:21 раз
Скачать  

09-11-2019 21:39 Охотники на ведьм Скачать торрент  

Охотники на ведьм / Zlogonje / The Witch Hunters

Год выпуска: 2018
Страна: Сербия, Македония / Akcija Produkcija, Dream Factory Macedonia, This and That Productions
Жанр: фэнтези, драма, приключения, семейный
Продолжительность: 01:24:32
Перевод: Любительский (одноголосый) [Владислав Данилов]
Субтитры: Russian - Softsub (SRT) (Отдельно)
Режиссер: Раско Милькович
rating
В ролях: Михайло Милавич, Сильма Махмути, Елена Джокич, Боян Жирович, Дубравка Ковянич, Елена Йованова, Ольга Оданович, Стела Четкович, Милутин Милошевич, Матейа Попович
Описание: Йован, мальчик с частичным церебральным параличом, становится другом Милицы. Эта девочка считает, что злая ведьма околдовала ее отца.
Качество: HDTVRip
Формат: AVI
Видео кодек: XviD
Аудио кодек: AC3
Видео: 2069 Kb/s, 720x304
Аудио#1: Russian: AC3, 192 Kb/s (2 ch)
Аудио#2: Serbian: AC3, 192 Kb/s (2 ch)


Общее
Полное имя : Zlogonje 2018 HDTVRip\Zlogonje 2018 HDTVRip.avi
Формат : AVI
Формат/Информация : Audio Video Interleave
Размер файла : 1,46 Гбайт
Продолжительность : 1 ч. 24 м.
Общий поток : 2467 Кбит/сек
Программа кодирования : VirtualDubMod 1.5.10.3 | www.virtualdub-fr.org || (build 2550/release)
Библиотека кодирования : VirtualDubMod build 2550/release

Видео
Идентификатор : 0
Формат : MPEG-4 Visual
Профиль формата : Advanced Simple@L5
Настройки формата : BVOP1
Параметр BVOP формата : 1
Параметр QPel формата : Нет
Параметр GMC формата : Без точки перехода
Параметр матрицы формата : Default (MPEG)
Идентификатор кодека : XVID
Идентификатор кодека/Подсказка : XviD
Продолжительность : 1 ч. 24 м.
Битрейт : 2069 Кбит/сек
Ширина : 720 пикселей
Высота : 304 пикселя
Соотношение сторон : 2,35:1
Частота кадров : 25,000 кадров/сек
Цветовое пространство : YUV
Субдискретизация насыщенности : 4:2:0
Битовая глубина : 8 бит
Тип развёртки : Прогрессивная
Метод сжатия : С потерями
Бит/(Пиксели*Кадры) : 0.378
Размер потока : 1,22 Гбайт (84%)
Библиотека кодирования : XviD 73

Аудио #1
Идентификатор : 1
Формат : AC-3
Формат/Информация : Audio Coding 3
Коммерческое название : Dolby Digital
Идентификатор кодека : 2000
Продолжительность : 1 ч. 24 м.
Вид битрейта : Постоянный
Битрейт : 192 Кбит/сек
Каналы : 2 канала
ChannelLayout : L R
Частота : 48,0 КГц
Частота кадров : 31,250 кадров/сек (1536 SPF)
Метод сжатия : С потерями
Размер потока : 116 Мбайт (8%)
Выравнивание : Разделение по промежуткам
Продолжительность промежутка : 40 мс. (1,00 видеокадр)
Время предзагрузки промежутка : 500 мс.
ServiceKind/String : Complete Main

Аудио #2
Идентификатор : 2
Формат : AC-3
Формат/Информация : Audio Coding 3
Коммерческое название : Dolby Digital
Идентификатор кодека : 2000
Продолжительность : 1 ч. 24 м.
Вид битрейта : Постоянный
Битрейт : 192 Кбит/сек
Каналы : 2 канала
ChannelLayout : L R
Частота : 48,0 КГц
Частота кадров : 31,250 кадров/сек (1536 SPF)
Метод сжатия : С потерями
Размер потока : 116 Мбайт (8%)
Выравнивание : Разделение по промежуткам
Продолжительность промежутка : 40 мс. (1,00 видеокадр)
Время предзагрузки промежутка : 500 мс.
ServiceKind/String : Complete Main

pb.wtf



Скачать Охотники на ведьм через торрент http://pic1.kartinco.top/images/12/zslaf.jpg Скачать фильм Охотники на ведьм через торрент бесплантно в хорошем качестве Описание: Йован, мальчик с частичным церебральным параличом, становится другом Милицы. Эта девочка считает, что злая ведьма околдовала ее ... 10 10 2
Торрент: Зарегистрирован [2019-11-09 21:39] · скачан: 21 раз
Статус: T временная
Размер: 1.46 GB
Как cкачать? Как скачать Охотники на ведьм через торрент | qTorrent

28-11-2019 20:33  

Отключить всю рекламу на сайте

09-11-2019 23:06 Охотники на ведьм Скачать торрент  

Топик был перенесен из форума Оформление раздач (Кино, Видео и ТВ) в форум Фильмы 2018-2019 (Звук TS, Cam, VO, DVO)


bober100pb.wtf



    Дорогой пользователь! Огромная просьба, поблагодарите релизера, оцените раздачу и оставьте свои комментарий, если Вы скачали Охотники на ведьм через торрент бесплатно! Внесите свою лепту в развитие PiratBit!
    Комментировать посты могут только пользователи прошедшие не сложную регистрацию
    Показать сообщения:    

    Охотники на ведьм через торрент
    Скачать бесплатно Охотники на ведьм
    Охотники на ведьм скачать торрент
    Охотники на ведьм смотреть онлайн
    Cкачать фильм Охотники на ведьм бесплатно
    Охотники на ведьм скачать торрент в хорошем качестве
    Охотники на ведьм смотреть онлайн бесплатно в хорошем качестве


    Вы не можете начинать темы
    Вы не можете отвечать на сообщения
    Вы не можете редактировать свои сообщения
    Вы не можете удалять свои сообщения
    Вы не можете голосовать в опросах
    Вы не можете прикреплять файлы к сообщениям
    Вы можете скачивать файлы