Ссылка на приватное зеркало нашего сайта всего за 1$. Внимание количество ограничено!!!

2 сезон

iTunes

1 сезон

1

iTunes

iTunes

iTunes

1 сезон

RePack

30

ИГРА 18+

pack

ВАЖНО

!!Акция!!

Alien_RageХит недели

RePack

MK11
pack

Забери бонус

RePack

jed

!!Акция!!

Alien_Rage

RePack

fifa19

RePack

Assassins Creed: Odyssey

RePack

NEED FOR SPEED™ PAYBACK

4 сезон

9 сезон

Бесстыжие 9 сезон

Все сериалы

все сериалы на PB.wtf

RePack

FAR CRY 5
  

Нет жизни без тебя / Серии: 1-2 из 2 (Елена Яковлева) [2019, Мелодрама, SATRip] pb.wtf

Нет жизни без тебя через торрент pb.wtf

Размер: 2.42 GB | Добавлен: 11 мес. назад | Торрент скачан:28 раз
Скачать  

09-11-2019 22:03 Нет жизни без тебя Скачать торрент  

Нет жизни без тебя Год выпуска: 2019
Производство: Россия, НАО «Кинокомпания Русское»
Жанр: Мелодрама
Продолжительность: ~ 01:30:00
Субтитры: Отсутствуют

Режиссёр: Елена Яковлева (III)

В ролях: Елена Аросьева, Павел Савинков, Евгений Шириков, Кристина Кучеренко, Михаил Гаврилов (II), Людмила Чиркова, Линда Лапиньш, Александр Сергеев (IV)

Описание: Светлана – идеальная жена. Смысл всей её жизни – это дом и счастье мужа Кости. Ради этого она даже отказалась от любимой работы музыкального педагога. Счастье омрачает лишь одно обстоятельство. Она никак не может забеременеть. А тем временем Косте наскучили забота жены и многолетняя семейная рутина. Ему не хватает в жизни новых острых ощущений. И как только на работе появляется новая коллега – эффектная молодая женщина Кира, у Кости с ней сразу вспыхивает роман. Он тут же без сожаления бросает Свету, которая не может даже представить своей жизни без него…

| Сэмпл |
Премьера: 09 ноября 2019 года (Росссия-1)
Реклама: Отсутствует

Качество: SATRip
Формат: AVI
Видео кодек: XviD
Аудио кодек: MP3

Видео: XviD, 720x400, ~ 1700 Кбит/с, 0.236 bit/pixel
Аудио: МР3, 2 ch, 192 Кбит/с
Общее
Полное имя : D:\Нет.Жизни.Без.Тебя.XviD.2019.SATRip.Kinozal-Reliz.7turza.Нет.Жизни.Без.Тебя.Kinozal-Reliz.7turza.avi
Формат : AVI
Формат/Информация : Audio Video Interleave
Размер файла : 1,20 Гбайт
Продолжительность : 1 ч. 30 м.
Общий поток : 1903 Кбит/сек
Название фильма : S01 E01 # from 7turza #
Программа кодирования : Lavf58.20.100
Библиотека кодирования : VirtualDub build 35576/release

Видео
Идентификатор : 0
Формат : MPEG-4 Visual
Профиль формата : Advanced Simple@L5
Настройки формата : BVOP1
Параметр BVOP формата : 1
Параметр QPel формата : Нет
Параметр GMC формата : Без точки перехода
Параметр матрицы формата : Default (H.263)
Идентификатор кодека : XVID
Идентификатор кодека/Подсказка : XviD
Продолжительность : 1 ч. 30 м.
Битрейт : 1698 Кбит/сек
Ширина : 720 пикселей
Высота : 400 пикселей
Соотношение сторон : 16:9
Частота кадров : 25,000 кадров/сек
Цветовое пространство : YUV
Субдискретизация насыщенности : 4:2:0
Битовая глубина : 8 бит
Тип развёртки : Прогрессивная
Бит/(Пиксели*Кадры) : 0.236
Размер потока : 1,07 Гбайт (89%)
Библиотека кодирования : XviD 67

Аудио
Идентификатор : 1
Формат : MPEG Audio
Версия формата : Version 1
Профиль формата : Layer 3
Настройки формата : Joint stereo / MS Stereo
Идентификатор кодека : 55
Идентификатор кодека/Подсказка : MP3
Продолжительность : 1 ч. 30 м.
Вид битрейта : Постоянный
Битрейт : 192 Кбит/сек
Каналы : 2 канала
Частота : 48,0 КГц
Размер потока : 124 Мбайт (10%)
Выравнивание : Соединение по промежуткам
Продолжительность промежутка : 24 мс. (0,60 видеокадр)
Время предзагрузки промежутка : 504 мс.
Библиотека кодирования : LAME3.100
pb.wtf



Скачать Нет жизни без тебя через торрент https://d.radikal.ru/d12/1911/4f/96dbeefb78e4.jpg Скачать фильм Нет жизни без тебя через торрент бесплантно в хорошем качестве Описание: Светлана – идеальная жена. Смысл всей её жизни – это дом и счастье мужа Кости. Ради этого она даже отказалась от любимой работы ... 10 10 4
Торрент: Зарегистрирован [2019-11-09 22:03] · скачан: 28 раз
Статус: √ проверено
Размер: 2.42 GB
Как cкачать? Как скачать Нет жизни без тебя через торрент | qTorrent

% Раздел Тема Автор DL S | L
Наши сериалы [ 9.76 GB ] Нет жизни без тебя / Серии: 1-2 из 2 [2019 Мело HDTV 1080i] bober100 Скачать
1 | 0
Наши сериалы [ 4.71 GB ] Нет жизни без тебя / Серии: 1-2 из 2 [2019 Мело HDTVRip 720p] bober100 Скачать
1 | 0
Наши сериалы [ 2.29 GB ] Нет жизни без тебя / Серии: 1-2 из 2 [2019 Мело WEBRip-AVC] bober100 Скачать
1 | 0
Наши сериалы [ 2.74 GB ] Нет жизни без тебя / Серии: 1-2 из 2 [2019 Мело HDTVRip] bober100 Скачать
1 | 0

28-11-2019 20:33  

Отключить всю рекламу на сайте

    Дорогой пользователь! Огромная просьба, поблагодарите релизера, оцените раздачу и оставьте свои комментарий, если Вы скачали Нет жизни без тебя через торрент бесплатно! Внесите свою лепту в развитие PiratBit!
    Комментировать посты могут только пользователи прошедшие не сложную регистрацию
    Показать сообщения:    

    Нет жизни без тебя через торрент
    Скачать бесплатно Нет жизни без тебя
    Нет жизни без тебя скачать торрент
    Нет жизни без тебя смотреть онлайн
    Cкачать фильм Нет жизни без тебя бесплатно
    Нет жизни без тебя скачать торрент в хорошем качестве
    Нет жизни без тебя смотреть онлайн бесплатно в хорошем качестве


    Вы не можете начинать темы
    Вы не можете отвечать на сообщения
    Вы не можете редактировать свои сообщения
    Вы не можете удалять свои сообщения
    Вы не можете голосовать в опросах
    Вы не можете прикреплять файлы к сообщениям
    Вы можете скачивать файлы