новый адрес
Ссылка на приватное зеркало всего за 1$. Внимание количество ограничено!!!

iTunes

1+1

iTunes

мы

WEB-DL

1

iTunes

Чернобыль

iTunes

Ральф против интернета

Лицензия

ПШазам

Лицензия

Оно 2

Лицензия

30
pack

Вам бонус

ВАЖНО

!!Акция!!

Alien_RageХит недели

RePack

Resident Evil 21

ИГРА 18+

pack

RePack

jed

!!Акция!!

Alien_Rage

RePack

fifa19

RePack

Assassins Creed: Odyssey

RePack

NEED FOR SPEED™ PAYBACK

3 сезон

9 сезон

Бесстыжие 9 сезон

Все сериалы

все сериалы на PB.wtf

RePack

FAR CRY 5
Ребята, катастрофически не хватает 1900р. для оплаты серверов за Октябрь (всвязи с блокировками трафик упал в 3 раза), 1-2р., выручайте.
  

Пусть идёт снег / Let It Snow (Люк Снеллин) [2019, мелодрама, комедия, WEB-DLRip-AVC] DUB [Невафильм] - OlLanDGroup pb.wtf

Пусть идёт снег через торрент pb.wtf

Раздают: 4 [ 0 KB/s ]
Размер: 746 MB | Добавлен: 1 мес. 1 д. назад | Торрент скачан:55 раз
Скачать  

10-11-2019 06:16 Пусть идёт снег Скачать торрент  

Пусть идёт снег / Let It Snow Год выпуска: 2019
Производство: Пусть идёт снег через торрент piratbit.pw США
Жанр: мелодрама, комедия
Продолжительность: 01:32:00

Перевод: Профессиональный (дублированный) | Невафильм
Субтитры: Русские (forced + full), английские

Режиссер: Люк Снеллин / Luke Snellin

В ролях: Изабела Монер, Кирнан Шипка, Джоан Кьюсак, Одейя Раш, Джейкоб Баталон, Шамеик Мур, Митчелл Хоуп, Майлз Роббинс, Мэйсон Гудинг, Лив Хьюсон

Описание: Неожиданный снежный буран в канун Рождества застает жителей Грейстауна врасплох: поезда останавливаются, машины вязнут в снегу, а люди стараются переждать непогоду дома. И лишь храбрая девушка выбирается из застрявшего в снегу экспресса, чтобы посидеть в тишине маленькой закусочной, где выпекают вафли. Она и не догадывается, что ее поступок стал первым звеном в цепи событий, которые изменят многие жизни: одна девушка влюбится в очаровательного незнакомца, трое друзей выиграют гонку в «Вафельную», а судьба карликовой свиньи окажется в руках влюбленного баристы.

rating

Качество: WEB-DLRip-AVC
Формат: MKV

Видео: 720x306 (2.35:1), 24 fps, x264 ~1042 kbps avg, 0.197 bit/pixel
Аудио: 48 kHz, HE-AAC, 2 ch, ~72 kbps avg
General
Unique ID : 154549638895264237400956398968112197396 (0x74452D80A5E1E73B18DBAC8A9C40AF14)
Complete name : D:OlLanDGroupLet.It.Snow.2019.NF.WEB-DLRip(AVC).745Mb.OlLanDGroup.mkv
Format : Matroska
Format version : Version 4
File size : 746 MiB
Duration : 1 h 33 min
Overall bit rate : 1 115 kb/s
Movie name : Let.It.Snow.2019.NF.WEB-DLRip(AVC).745Mb.OlLanDGroup#Skandar#
Encoded date : UTC 2019-11-10 05:25:03
Writing application : mkvmerge v31.0.0 ('Dolores In A Shoestand') 64-bit
Writing library : libebml v1.3.6 + libmatroska v1.4.9

Video
ID : 1
Format : AVC
Format/Info : Advanced Video Codec
Format profile : High@L4.1
Format settings : CABAC / 10 Ref Frames
Format settings, CABAC : Yes
Format settings, ReFrames : 10 frames
Codec ID : V_MPEG4/ISO/AVC
Duration : 1 h 33 min
Bit rate : 1 042 kb/s
Width : 720 pixels
Height : 306 pixels
Display aspect ratio : 2.35:1
Frame rate mode : Constant
Frame rate : 24.000 FPS
Color space : YUV
Chroma subsampling : 4:2:0
Bit depth : 8 bits
Scan type : Progressive
Bits/(Pixel*Frame) : 0.197
Stream size : 696 MiB (93%)
Title : Let.It.Snow.2019.NF.WEB-DLRip(AVC).745Mb.OlLanDGroup#Skandar#
Writing library : x264 core 146 r2538 121396c
Encoding settings : cabac=1 / ref=10 / deblock=1:-3:-3 / analyse=0x3:0x133 / me=umh / subme=11 / psy=1 / psy_rd=0.97:0.05 / mixed_ref=1 / me_range=48 / chroma_me=1 / trellis=2 / 8x8dct=1 / cqm=0 / deadzone=21,11 / fast_pskip=0 / chroma_qp_offset=-3 / threads=6 / lookahead_threads=1 / sliced_threads=0 / nr=0 / decimate=0 / interlaced=0 / bluray_compat=0 / constrained_intra=0 / bframes=11 / b_pyramid=2 / b_adapt=2 / b_bias=0 / direct=3 / weightb=1 / open_gop=0 / weightp=2 / keyint=240 / keyint_min=23 / scenecut=40 / intra_refresh=0 / rc_lookahead=40 / rc=2pass / mbtree=0 / bitrate=1042 / ratetol=1.0 / qcomp=0.60 / qpmin=0 / qpmax=69 / qpstep=4 / cplxblur=20.0 / qblur=0.5 / vbv_maxrate=50000 / vbv_bufsize=62500 / nal_hrd=none / filler=0 / ip_ratio=1.40 / pb_ratio=1.30 / aq=1:1.00
Language : Russian
Default : Yes
Forced : No

Audio
ID : 2
Format : AAC LC SBR
Format/Info : Advanced Audio Codec Low Complexity with Spectral Band Replication
Commercial name : HE-AAC
Format settings : Explicit
Codec ID : A_AAC-2
Duration : 1 h 33 min
Bit rate : 72.0 kb/s
Channel(s) : 2 channels
Channel layout : L R
Sampling rate : 48.0 kHz
Frame rate : 23.438 FPS (2048 SPF)
Compression mode : Lossy
Delay relative to video : 31 ms
Stream size : 48.1 MiB (6%)
Title : DUB (Невафильм)
Language : Russian
Default : Yes
Forced : No

Text #1
ID : 3
Format : UTF-8
Codec ID : S_TEXT/UTF8
Codec ID/Info : UTF-8 Plain Text
Duration : 1 h 32 min
Bit rate : 0 b/s
Count of elements : 11
Stream size : 568 Bytes (0%)
Title : Forced
Language : Russian
Default : Yes
Forced : Yes

Text #2
ID : 4
Format : UTF-8
Codec ID : S_TEXT/UTF8
Codec ID/Info : UTF-8 Plain Text
Duration : 1 h 32 min
Bit rate : 81 b/s
Count of elements : 1313
Stream size : 55.5 KiB (0%)
Title : Full
Language : Russian
Default : No
Forced : No

Text #3
ID : 5
Format : UTF-8
Codec ID : S_TEXT/UTF8
Codec ID/Info : UTF-8 Plain Text
Duration : 1 h 32 min
Bit rate : 73 b/s
Count of elements : 1643
Stream size : 49.6 KiB (0%)
Language : English
Default : No
Forced : No
***За исходник спасибо: Wilmots@EniaHD

Релиз от: pb.wtf



Скачать Пусть идёт снег через торрент http://c.radikal.ru/c05/1911/33/61e7f3a74b90.jpg Скачать фильм Пусть идёт снег через торрент бесплантно в хорошем качестве Описание: Неожиданный снежный буран в канун Рождества застает жителей Грейстауна врасплох: поезда останавливаются, машины вязнут в снегу, а ... 10 10 3
Info! Золотая раздача, скачанное не засчитывается.
Торрент: Зарегистрирован [2019-11-10 06:16] · скачан: 55 раз
Статус: √ проверено
Размер: 746 MB
Как cкачать? Как скачать Пусть идёт снег через торрент | qTorrent

% Раздел Тема Автор DL S | L
Фильмы 2019 [DVDrip, WEB-DLRip, HDrip] (DUB, MVO) [ 1.46 GB ] Пусть идёт снег / Let It Snow [2019 WEB-DLRip-AVC] DUB [Невафильм] - OlLanDGroup Skandar2019 Скачать
7 | 0

28-11-2019 20:33  

Отключить всю рекламу на сайте

10-11-2019 14:46 Пусть идёт снег Скачать торрент  

Производство: Пусть идёт снег через торрент

вы что там курите? pb.wtf



    Дорогой пользователь! Огромная просьба, поблагодарите релизера, оцените раздачу и оставьте свои комментарий, если Вы скачали Пусть идёт снег через торрент бесплатно! Внесите свою лепту в развитие PiratBit!
    Комментировать посты могут только пользователи прошедшие не сложную регистрацию
    Показать сообщения:    

    Пусть идёт снег через торрент
    Скачать бесплатно Пусть идёт снег
    Пусть идёт снег скачать торрент
    Пусть идёт снег смотреть онлайн
    Cкачать фильм Пусть идёт снег бесплатно
    Пусть идёт снег скачать торрент в хорошем качестве
    Пусть идёт снег смотреть онлайн бесплатно в хорошем качестве


    Вы не можете начинать темы
    Вы не можете отвечать на сообщения
    Вы не можете редактировать свои сообщения
    Вы не можете удалять свои сообщения
    Вы не можете голосовать в опросах
    Вы не можете прикреплять файлы к сообщениям
    Вы можете скачивать файлы