2 сезон

iTunes

MVO

1

2 сезон

iTunes

iTunes

1 сезон

RePack

30

Ultimate

ВАЖНО

ИГРА 18+

pack

RePack

MK11
pack

Легкие деньги

RePack

jed

RePack

fifa19

RePack

RDR2

RePack

NEED FOR SPEED™ PAYBACK

4 сезон

9 сезон

Бесстыжие 9 сезон

Все сериалы

все сериалы на PB.wtf

RePack

FAR CRY 5

Anonymous, добрый вечер, мы не успеваем собрать деньги на оплату серверов за декабрь и январь, помогите нам пожалуйста в это трудное время. В качестве благодарности мы отключим Вам всю рекламу на сайте (укажите свой ник в строку Ваше имя)!

×
  
Magnet ссылка

Звериная ярость / Первобытный / Primal (Ник Пауэлл) [2019, боевик, BDRip 720p] DUB [iTunes] pb.wtf

Звериная ярость через торрент pb.wtf

Размер: 3.84 GB | Добавлен: 1 год назад | Торрент скачан:126 раз
Скачать  

10-11-2019 06:51 Звериная ярость Скачать торрент  

Звериная ярость / Первобытный / Primal
Год выпуска: 2019
Страна: США
Студия: Daniel Grodnik Productions, The Wonderfilm Media Corporation, Imprint Entertainment
Жанр: боевик
Продолжительность: 01:36:51
Перевод: Дублированный | iTunes
Субтитры: Русские (Full), английские

Режиссер: Ник Пауэлл

rating

В ролях: Николас Кейдж, Фамке Янссен, Кевин Дюран, ЛаМоника Гаррет, Майкл Империоли, Том Уолкер, Рей Эрнандес, Джон Льюис, Браулио Кастильо мл., Дрэйк Шеннон, Джозеф Оливейра, Брайан Тестер, Пабло Туфино, Себастьян Васкес, Джереми Насарио

Описание: Охотник и зверолов Фрэнк Уолш промышляет редкими животными. Недавно он поймал белого ягуара и теперь рассчитывает продать его в зоопарк за кругленькую сумму. Но кроме Фрэнка и ягуара на борту корабля, следующего в Америку, оказывается опасный убийца, который должен предстать перед судом. В пути убийца сбегает, так что Фрэнк вынужден начать охоту на самого опасного хищника - человека.

Качество: BDRip 720p
Формат: MKV

Видео: MPEG-4 AVC, 1280x536, 4655 Кbit/s, 23.976 fps
Аудио #01: 48 kHz, AC3, 5.1, 384 Kbps | iTunes | RUS |
Аудио #02: 48 kHz, AC3, 5.1, 640 Kbps | Оригинал | ENG |
скриншот  скриншот  скриншот  скриншот  скриншот  

General
Unique ID : 229696412576404479156609338835774233613 (0xACCDEB7F37773A0FADBFEAB1F87C5C0D)
Complete name : F:Video111Primal.2019.BDRip.720p.seleZen.mkv
Format : Matroska
Format version : Version 4
File size : 3.84 GiB
Duration : 1 h 36 min
Overall bit rate : 5 681 kb/s
Movie name : Primal 2019 from селезень
Encoded date : UTC 2019-12-25 21:25:36
Writing application : mkvmerge v40.0.0 ('Old Town Road + Pony') 64-bit
Writing library : libebml v1.3.9 + libmatroska v1.5.2

Video
ID : 1
Format : AVC
Format/Info : Advanced Video Codec
Format profile : High@L4.1
Format settings : CABAC / 12 Ref Frames
Format settings, CABAC : Yes
Format settings, Reference : 12 frames
Codec ID : V_MPEG4/ISO/AVC
Duration : 1 h 36 min
Bit rate : 4 655 kb/s
Width : 1 280 pixels
Height : 536 pixels
Display aspect ratio : 2.40:1
Frame rate mode : Constant
Frame rate : 23.976 (24000/1001) FPS
Color space : YUV
Chroma subsampling : 4:2:0
Bit depth : 8 bits
Scan type : Progressive
Bits/(Pixel*Frame) : 0.283
Stream size : 3.15 GiB (82%)
Writing library : x264 core 158 r2984+49 6932f4a t_mod_New [0-bit@all X86_64]
Encoding settings : cabac=1 / ref=12 / deblock=1:-3:-3 / analyse=0x3:0x133 / me=umh / subme=10 / psy=1 / fade_compensate=0.00 / psy_rd=1.00:0.00 / mixed_ref=1 / me_range=32 / chroma_me=1 / trellis=2 / 8x8dct=1 / cqm=0 / deadzone=21,11 / fast_pskip=0 / chroma_qp_offset=-2 / threads=16 / lookahead_threads=4 / sliced_threads=0 / nr=0 / decimate=0 / interlaced=0 / bluray_compat=0 / constrained_intra=0 / fgo=0 / bframes=12 / b_pyramid=2 / b_adapt=2 / b_bias=0 / direct=3 / weightb=1 / open_gop=0 / weightp=2 / keyint=480 / keyint_min=24 / scenecut=40 / intra_refresh=0 / rc_lookahead=80 / rc=crf / mbtree=0 / crf=16.0000 / qcomp=0.60 / qpmin=0:0:0 / qpmax=69:69:69 / qpstep=4 / vbv_maxrate=62500 / vbv_bufsize=78125 / crf_max=0.0 / nal_hrd=none / filler=0 / ip_ratio=1.30 / pb_ratio=1.20 / aq=3:0.80 / aq-sensitivity=10.00 / aq-factor=1.00:1.00:1.00 / aq2=0 / aq3=0
Language : English
Default : Yes
Forced : No
Color range : Limited
Color primaries : BT.709
Transfer characteristics : BT.709
Matrix coefficients : BT.709

Audio #1
ID : 2
Format : AC-3
Format/Info : Audio Coding 3
Commercial name : Dolby Digital
Codec ID : A_AC3
Duration : 1 h 36 min
Bit rate mode : Constant
Bit rate : 384 kb/s
Channel(s) : 6 channels
Channel layout : L R C LFE Ls Rs
Sampling rate : 48.0 kHz
Frame rate : 31.250 FPS (1536 SPF)
Bit depth : 16 bits
Compression mode : Lossy
Stream size : 266 MiB (7%)
Title : iTunes
Language : Russian
Service kind : Complete Main
Default : Yes
Forced : Yes

Audio #2
ID : 3
Format : AC-3
Format/Info : Audio Coding 3
Commercial name : Dolby Digital
Codec ID : A_AC3
Duration : 1 h 36 min
Bit rate mode : Constant
Bit rate : 640 kb/s
Channel(s) : 6 channels
Channel layout : L R C LFE Ls Rs
Sampling rate : 48.0 kHz
Frame rate : 31.250 FPS (1536 SPF)
Bit depth : 16 bits
Compression mode : Lossy
Stream size : 443 MiB (11%)
Title : Original
Language : English
Service kind : Complete Main
Default : No
Forced : No

Text #1
ID : 4
Format : UTF-8
Codec ID : S_TEXT/UTF8
Codec ID/Info : UTF-8 Plain Text
Duration : 1 h 31 min
Bit rate : 87 b/s
Count of elements : 1041
Stream size : 58.7 KiB (0%)
Title : Full
Language : Russian
Default : No
Forced : No

Text #2
ID : 5
Format : UTF-8
Codec ID : S_TEXT/UTF8
Codec ID/Info : UTF-8 Plain Text
Duration : 1 h 33 min
Bit rate : 48 b/s
Count of elements : 997
Stream size : 33.4 KiB (0%)
Title : Full
Language : English
Default : No
Forced : No

Menu
00:00:00.000 : en:Chapter 1
00:10:15.114 : en:Chapter 2
00:18:51.464 : en:Chapter 3
00:24:53.492 : en:Chapter 4
00:27:28.313 : en:Chapter 5
00:33:18.830 : en:Chapter 6
00:42:31.048 : en:Chapter 7
00:50:53.550 : en:Chapter 8
01:00:48.186 : en:Chapter 9
01:06:42.498 : en:Chapter 10
01:15:28.190 : en:Chapter 11
01:32:29.711 : en:Chapter 12

pb.wtf



Скачать Звериная ярость через торрент https://b.radikal.ru/b34/1912/22/e415c954fa5c.jpg Скачать фильм Звериная ярость через торрент бесплантно в хорошем качестве Описание: Охотник и зверолов Фрэнк Уолш промышляет редкими животными. Недавно он поймал белого ягуара и теперь рассчитывает продать его в ... 10 10 7
Торрент: Зарегистрирован [2019-12-26 01:00] · скачан: 126 раз
Статус: √ проверено
Размер: 3.84 GB
Как cкачать? Как скачать Звериная ярость через торрент | UTorrent

% Раздел Тема Автор DL S | L
Фильмы 2019-2020 [DVDrip, WEB-DLRip, HDrip] (DUB, MVO) [ 1.42 GB ] Звериная ярость / Первобытный / Primal [2019 BDRip] - Twi7ter Скачать
10 | 0
Фильмы 2019-2020 [DVDrip, WEB-DLRip, HDrip] (DUB, MVO) [ 1.46 GB ] Звериная ярость / Первобытный / Primal [2019 BDRip] bober100 Скачать
1 | 0
Фильмы [HD 720p, 1080p] (Хороший звук DUB, MVO) [ 8.37 GB ] Звериная ярость / Первобытный / Primal [2019 BDRip 1080p] bober100 Скачать
1 | 0
Фильмы (Blu-ray, BD-Remux, HDDVD) [ 20.42 GB ] Звериная ярость / Первобытный / Primal [2019 BD Remux 1080p] bober100 Скачать
1 | 0


Последний раз редактировалось: bober100 (2019-12-24 19:48), всего редактировалось 1 раз

28-11-2019 20:33  

Отключить всю рекламу на сайте

    Дорогой пользователь! Огромная просьба, поблагодарите релизера, оцените раздачу и оставьте свои комментарий, если Вы скачали Звериная ярость через торрент бесплатно! Внесите свою лепту в развитие PiratBit!
    Комментировать посты могут только пользователи прошедшие не сложную регистрацию
    Показать сообщения:    

    Звериная ярость через торрент
    Скачать бесплатно Звериная ярость
    Звериная ярость скачать торрент
    Звериная ярость смотреть онлайн
    Cкачать фильм Звериная ярость бесплатно
    Звериная ярость скачать торрент в хорошем качестве
    Звериная ярость смотреть онлайн бесплатно в хорошем качестве


    Вы не можете начинать темы
    Вы не можете отвечать на сообщения
    Вы не можете редактировать свои сообщения
    Вы не можете удалять свои сообщения
    Вы не можете голосовать в опросах
    Вы не можете прикреплять файлы к сообщениям
    Вы можете скачивать файлы