Всегда рабочее зеркало без VPN и Proxy просто перед .vidak.icu напиши любое слово или цифру, Пример http://vq2p.vidak.icu

MVO

2 сезон

2 сезон

1

1 сезон

iTunes

2 сезон

13

1 сезон

Распродажа

pack

Рекомендуем

Пиратка

30

ВАЖНО

RePack

MK11

RePack

jed

RePack

fifa19

RePack

RDR2

RePack

NEED FOR SPEED™ PAYBACK

Кинопоиск HD

6 сезон

 Острые козырьки 6 сезон

Все сериалы

все сериалы на PB.wtf

RePack

FAR CRY 5

Anonymous, нам критически не хватает 5601 руб. на оплату серверов и переферии за Апрель, помоги нам пожалуйста, вся надежда только на тебя. В благодарность мы отключим тебе всю рекламу на сайте!

×
  
Magnet ссылка

Верьте мне, люди (Владимир Беренштейн, Илья Гурин, Леонид Луков) [1964, СССР, драма, WEB-DLRip от AVP Studio] pb.wtf

Верьте мне, люди через торрент pb.wtf

Размер: 1.09 GB | Добавлен: 2 года 6 мес. назад | Торрент скачан:23 раза
Смотреть онлайн Верьте мне, люди | Скачать    Ребята, помогите собрать деньги на оплату серверов!!!

10-11-2019 09:30 Верьте мне, люди Скачать торрент  

Верьте мне, люди
Страна: СССР
Производство: Центральная студия детских и юношеских фильмов им. М. Горького

Жанр: драма
Год выпуска: 1964
Продолжительность: 01:45:14

Перевод: Не требуется
Cубтитры: нет
Оригинальная аудиодорожка: русский

Режиссер: Владимир Беренштейн, Илья Гурин, Леонид Луков

В ролях:
Кирилл Лавров, Владимир Самойлов, Ирина Бунина, Станислав Чекан, Всеволод Кузнецов, Сергей Плотников...
Об актёрах подробней

Описание:
1956 год. По нелепому стечению обстоятельств Алексей Лапин совершает побег из лагеря за месяц до своего освобождения. Случайность спасает героя от розыска. Приехав в Ленинград, Алексей влюбляется в дочь рабочего, у которого снимает комнату, — и решает начать честную жизнь.

Источник: WEB-DL 720p
Качество видео: WEB-DLRip
Формат видео: AVI

Видео: 720х400 (16:9), 29.970 fps, XviD ~ 1278 kbps avg, 0.148 bit/pixel
Аудио: 48 kHz, Dolby Digital AC3 2.0, 192 kbps

Раздача от:
Общее
Полное имя : Verte.mne,lyudi.1964.WEB-DLRip_[New-team]_by_AVP_Studio.avi
Формат : AVI
Формат/Информация : Audio Video Interleave
Размер файла : 1,09 Гбайт
Продолжительность : 1 ч. 45 м.
Общий поток : 1482 Кбит/сек
Программа кодирования : VirtualDubMod 1.5.10.3 | www.virtualdub-fr.org || (build 2550/release)
Библиотека кодирования : VirtualDubMod build 2550/release

Видео
Идентификатор : 0
Формат : MPEG-4 Visual
Профиль формата : Advanced Simple@L5
Настройки формата : BVOP1 / Custom Matrix
Параметр BVOP формата : 1
Параметр QPel формата : Нет
Параметр GMC формата : Без точки перехода
Параметр матрицы формата : Выборочная
Идентификатор кодека : XVID
Идентификатор кодека/Подсказка : XviD
Продолжительность : 1 ч. 45 м.
Битрейт : 1278 Кбит/сек
Ширина : 720 пикселей
Высота : 400 пикселей
Соотношение сторон : 16:9
Частота кадров : 29,970 (30000/1001) кадров/сек
Цветовое пространство : YUV
Субдискретизация насыщенности : 4:2:0
Битовая глубина : 8 бит
Тип развёртки : Прогрессивная
Метод сжатия : С потерями
Бит/(Пиксели*Кадры) : 0.148
Размер потока : 962 Мбайт (86%)
Библиотека кодирования : XviD 73

Аудио
Идентификатор : 1
Формат : AC-3
Формат/Информация : Audio Coding 3
Коммерческое название : Dolby Digital
Идентификатор кодека : 2000
Продолжительность : 1 ч. 45 м.
Вид битрейта : Постоянный
Битрейт : 192 Кбит/сек
Каналы : 2 канала
ChannelLayout : L R
Частота : 48,0 КГц
Частота кадров : 31,250 кадров/сек (1536 SPF)
Битовая глубина : 16 бит
Метод сжатия : С потерями
Размер потока : 145 Мбайт (13%)
Выравнивание : Разделение по промежуткам
Продолжительность промежутка : 33 мс. (1,00 видеокадр)
Время предзагрузки промежутка : 500 мс
pb.wtf



Скачать Верьте мне, люди через торрент http://a.radikal.ru/a24/2001/84/c4d306194ed3.png Скачать, смотреть онлайн Верьте мне, люди бесплантно в хорошем качестве Описание:1956 год. По нелепому стечению обстоятельств Алексей Лапин совершает побег из лагеря за месяц до своего освобождения. Случайность ... 10 10 1
Торрент: Зарегистрирован [2019-11-10 09:30] · скачан: 23 раз
Статус: √ проверено
Размер: 1.09 GB
Как cкачать? Как скачать Верьте мне, люди через торрент | UTorrent

% Раздел Тема Автор DL S | L
Кино СССР [ 2.18 GB ] Верьте мне люди [1964 СССР WEB-DLRip-AVC от AVP Studio] AVP Studio Скачать
2 | 1

28-11-2019 20:33  

Отключить всю рекламу на сайте

    Дорогой пользователь! Огромная просьба, поблагодарите релизера, оцените раздачу и оставьте свои комментарий, если Вы скачали Верьте мне, люди через торрент бесплатно!
    Комментировать посты могут только пользователи прошедшие не сложную регистрацию
    Показать сообщения:    

    Верьте мне, люди через торрент
    Скачать бесплатно Верьте мне, люди
    Верьте мне, люди скачать торрент
    Верьте мне, люди смотреть онлайн
    Cкачать фильм Верьте мне, люди бесплатно
    Верьте мне, люди скачать торрент в хорошем качестве
    Верьте мне, люди смотреть онлайн бесплатно в хорошем качестве


    Вы не можете начинать темы
    Вы не можете отвечать на сообщения
    Вы не можете редактировать свои сообщения
    Вы не можете удалять свои сообщения
    Вы не можете голосовать в опросах
    Вы не можете прикреплять файлы к сообщениям
    Вы можете скачивать файлы