>

5.6

iTunes

7.4

MVO

5.7

MVO

1

7.4

1 сезон

6.8

iTunes

7.2

1 сезон

13

6.7

1 сезон

8.3

RePack

30

Deluxe

pack

9.9

Лицензия

ВАЖНО

ИГРА 18+

pack

7.3

RePack

MK11

7.7

RePack

jed

7.8

RePack

fifa19

8.5

RePack

RDR2

RePack

NEED FOR SPEED™ PAYBACK

4 сезон

9 сезон

Бесстыжие 9 сезон

Все сериалы

все сериалы на PB.wtf

RePack

FAR CRY 5

Anonymous, доброе утро, мы катастрофически не успеваем собрать деньги на оплату серверов, помогите нам пожалуйста 5,10,15р., для нас важна любая помощь . В качестве благодарности мы отключим Вам всю рекламу на сайте (укажите свой ник в строку Ваше имя)!

×
  
Magnet ссылка

Верьте мне, люди (Владимир Беренштейн, Илья Гурин, Леонид Луков) [1964, СССР, драма, WEB-DLRip-AVC от AVP Studio] pb.wtf

Верьте мне, люди через торрент pb.wtf

Размер: 2.18 GB | Добавлен: 1 год 10 мес. назад | Торрент скачан:27 раз
Смотреть онлайн Верьте мне, люди | Скачать    Ребята, помогите собрать деньги на оплату серверов!!!

10-11-2019 09:31 Верьте мне, люди Скачать торрент  

Верьте мне, люди
Страна: СССР
Производство: Центральная студия детских и юношеских фильмов им. М. Горького

Жанр: драма
Год выпуска: 1964
Продолжительность: 01:45:14

Перевод: Не требуется
Cубтитры: нет
Оригинальная аудиодорожка: русский

Режиссер: Владимир Беренштейн, Илья Гурин, Леонид Луков

В ролях:
Кирилл Лавров, Владимир Самойлов, Ирина Бунина, Станислав Чекан, Всеволод Кузнецов, Сергей Плотников...
Об актёрах подробней

Описание:
1956 год. По нелепому стечению обстоятельств Алексей Лапин совершает побег из лагеря за месяц до своего освобождения. Случайность спасает героя от розыска. Приехав в Ленинград, Алексей влюбляется в дочь рабочего, у которого снимает комнату, — и решает начать честную жизнь.

Источник: WEB-DL 720p
Качество видео: WEB-DLRip-AVC
Формат видео: MKV

Видео: 1024х576 (16:9), 29.970 fps, H264 ~ 2769 kbps avg, 0.157 bit/pixel
Аудио: 48 kHz, Dolby Digital AC3 2.0, 192 kbps

Раздача от:
Общее
Полное имя : Verte.mne,lyudi.1964.WEB-DLRip-AVC_[New-team]_by_AVP_Studio.mkv
Формат : Matroska
Версия формата : Version 2
Размер файла : 2,18 Гбайт
Продолжительность : 1 ч. 45 м.
Общий поток : 2963 Кбит/сек
Дата кодирования : UTC 2019-11-08 07:56:11
Программа кодирования : mkvmerge v6.1.0 ('Old Devil') built on Mar 4 2013 09:10:42
Библиотека кодирования : libebml v1.3.0 + libmatroska v1.4.0

Видео
Идентификатор : 1
Формат : AVC
Формат/Информация : Advanced Video Codec
Профиль формата : High@L4.1
Настройки формата : CABAC / 10 Ref Frames
Параметр CABAC формата : Да
Параметр RefFrames формата : 10 кадров
Идентификатор кодека : V_MPEG4/ISO/AVC
Продолжительность : 1 ч. 45 м.
Битрейт : 2769 Кбит/сек
Ширина : 1024 пикселя
Высота : 576 пикселей
Соотношение сторон : 16:9
Режим частоты кадров : Постоянный
Частота кадров : 29,970 (30000/1001) кадров/сек
Цветовое пространство : YUV
Субдискретизация насыщенности : 4:2:0
Битовая глубина : 8 бит
Тип развёртки : Прогрессивная
Бит/(Пиксели*Кадры) : 0.157
Размер потока : 1,99 Гбайт (92%)
Библиотека кодирования : x264 core 157 r2932 303c484
Настройки программы : cabac=1 / ref=10 / deblock=1:-3:-2 / analyse=0x3:0x113 / me=umh / subme=10 / psy=1 / psy_rd=1.00:0.00 / mixed_ref=1 / me_range=32 / chroma_me=1 / trellis=2 / 8x8dct=1 / cqm=0 / deadzone=21,11 / fast_pskip=1 / chroma_qp_offset=-2 / threads=6 / lookahead_threads=1 / sliced_threads=0 / nr=0 / decimate=0 / interlaced=0 / bluray_compat=0 / constrained_intra=0 / bframes=8 / b_pyramid=2 / b_adapt=2 / b_bias=0 / direct=3 / weightb=1 / open_gop=0 / weightp=2 / keyint=250 / keyint_min=25 / scenecut=40 / intra_refresh=0 / rc_lookahead=40 / rc=2pass / mbtree=1 / bitrate=2769 / ratetol=1.0 / qcomp=0.60 / qpmin=0 / qpmax=69 / qpstep=4 / cplxblur=20.0 / qblur=0.5 / ip_ratio=1.40 / aq=1:1.00
Default : Да
Forced : Нет

Аудио
Идентификатор : 2
Формат : AC-3
Формат/Информация : Audio Coding 3
Коммерческое название : Dolby Digital
Идентификатор кодека : A_AC3
Продолжительность : 1 ч. 45 м.
Вид битрейта : Постоянный
Битрейт : 192 Кбит/сек
Каналы : 2 канала
ChannelLayout : L R
Частота : 48,0 КГц
Частота кадров : 31,250 кадров/сек (1536 SPF)
Битовая глубина : 16 бит
Метод сжатия : С потерями
Размер потока : 145 Мбайт (6%)
Default : Да
Forced : Нет
pb.wtf



Скачать Верьте мне, люди через торрент http://a.radikal.ru/a24/2001/84/c4d306194ed3.png Скачать, смотреть онлайн Верьте мне, люди бесплантно в хорошем качестве Описание:1956 год. По нелепому стечению обстоятельств Алексей Лапин совершает побег из лагеря за месяц до своего освобождения. Случайность ... 9.5 10 2
Торрент: Зарегистрирован [2019-11-10 09:31] · скачан: 27 раз
Статус: √ проверено
Размер: 2.18 GB
Как cкачать? Как скачать Верьте мне, люди через торрент | UTorrent

% Раздел Тема Автор DL S | L
Кино СССР [ 1.09 GB ] Верьте мне люди [1964 СССР WEB-DLRip от AVP Studio] AVP Studio Скачать
1 | 0

28-11-2019 20:33  

Отключить всю рекламу на сайте

    Дорогой пользователь! Огромная просьба, поблагодарите релизера, оцените раздачу и оставьте свои комментарий, если Вы скачали Верьте мне, люди через торрент бесплатно!
    Комментировать посты могут только пользователи прошедшие не сложную регистрацию
    Показать сообщения:    

    Верьте мне, люди через торрент
    Скачать бесплатно Верьте мне, люди
    Верьте мне, люди скачать торрент
    Верьте мне, люди смотреть онлайн
    Cкачать фильм Верьте мне, люди бесплатно
    Верьте мне, люди скачать торрент в хорошем качестве
    Верьте мне, люди смотреть онлайн бесплатно в хорошем качестве


    Вы не можете начинать темы
    Вы не можете отвечать на сообщения
    Вы не можете редактировать свои сообщения
    Вы не можете удалять свои сообщения
    Вы не можете голосовать в опросах
    Вы не можете прикреплять файлы к сообщениям
    Вы можете скачивать файлы