новый адрес
Ссылка на приватное зеркало всего за 1$. Внимание количество ограничено!!!

iTunes

1+1

iTunes

мы

iTunes

1

iTunes

Чернобыль

iTunes

Ральф против интернета

Лицензия

ПШазам

Лицензия

Оно 2

Лицензия

30
pack

Вам бонус

ВАЖНО

!!Акция!!

Alien_RageХит недели

RePack

Resident Evil 21

ИГРА 18+

pack

RePack

jed

!!Акция!!

Alien_Rage

RePack

fifa19

RePack

Assassins Creed: Odyssey

RePack

NEED FOR SPEED™ PAYBACK

3 сезон

9 сезон

Бесстыжие 9 сезон

Все сериалы

все сериалы на PB.wtf

RePack

FAR CRY 5
Ребята, катастрофически не хватает 1900р. для оплаты серверов за Октябрь (всвязи с блокировками трафик упал в 3 раза), 1-2р., выручайте.
  

Испытание огнем / Trial by Fire (Эдвард Цвик) [2018, Драма, биография, криминал, WEB-DLRip-AVC] DUB [iTunes] + MVO [HDRezka Studio] - OlLanDGroup pb.wtf

Испытание огнем через торрент pb.wtf

Раздают: 1 [ 0 KB/s ]
Размер: 2.73 GB | Добавлен: 25 д. назад | Торрент скачан:55 раз
Скачать  

10-11-2019 14:34 Испытание огнем Скачать торрент  

Испытание огнем / Trial by Fire Год выпуска: 2018
Страна: США
Жанр: Драма, биография, криминал
Продолжительность: 02:07:05

Перевод:
#1: Дублированный | iTunes
#2: Профессиональный (многоголосый) | HDRezka Studio
Субтитры: Русские (Forced, full), английские

Режиссер: Эдвард Цвик

rating

В ролях: Лора Дерн, Джэйд Петтиджон, Джек О`Коннелл, Эмили Мид, Джефф Перри, Рода Гриффис, Эль Грэм, Крис Кой, Джейсон Дуглас, Даррен Петти, Тинсли Прайс, Карлос Гомес, Эннистон Прайс

Описание: Фильм основан на реальных событиях. История Кэмерона Тодда Уиллингема — бедного бунтаря с криминальным прошлым из небольшого города в Техасе, которого обвинили в убийстве трех его дочерей и приговорили к смертной казни. Когда весь мир отвернулся от мужчины, на его защиту встала Элизабет Гилберт — мать двоих детей из Хьюстона, отказавшаяся признавать обвинительный приговор. В течение 12 лет она поддерживала Кэмерона, находящегося в камере смертников, изучая всю доказательную базу по его делу.

Качество: WEB-DLRip-AVC
Формат: MKV

b]Видео: 1024x552 (1.85:1), 23.976 fps, х264 ~2045 kbps avg, 0.151 bit/pixel
Звук #1: 48 kHz, AC3 Dolby Digital, 3/2 (L,C,R,l,r) + LFE ch, ~384 kbps | RUS (iTunes)
Звук #2: 48 kHz, AC3 Dolby Digital, 2/0 (L,R) ch, ~192 kbps | RUS (HDRezka Studio)
Звук #3: 48 kHz, AC3 Dolby Digital, 3/2 (L,C,R,l,r) + LFE ch, ~448 kbps | ENG
Субтитры: Русские (Forced, full), английские
Общее
Уникальный идентификатор : 146311728460567458724625427527744861945 (0x6E129D28ECF87180D53CC148000BB6F9)
Полное имя : E:\Trial.by.Fire.2018.AMZN.WEB-DLRip(AVC).OllanDGroup.mkv
Формат : Matroska
Версия формата : Version 4 / Version 2
Размер файла : 2,73 Гбайт
Продолжительность : 2 ч. 7 м.
Общий поток : 3070 Кбит/сек
Название фильма : Trial by Fire 2018 #Skandar#
Дата кодирования : UTC 2019-11-10 14:19:13
Программа кодирования : mkvmerge v29.0.0 ('Like It Or Not') 64-bit
Библиотека кодирования : libebml v1.3.6 + libmatroska v1.4.9

Видео
Идентификатор : 1
Формат : AVC
Формат/Информация : Advanced Video Codec
Профиль формата : High@L4.1
Параметр CABAC формата : Да
Параметр ReFrames формата : 10 кадров
Идентификатор кодека : V_MPEG4/ISO/AVC
Продолжительность : 2 ч. 7 м.
Битрейт : 2045 Кбит/сек
Ширина : 1024 пикселя
Высота : 552 пикселя
Соотношение сторон : 1,85:1
Режим частоты кадров : Постоянный
Частота кадров : 23,976 (24000/1001) кадра/сек
Цветовое пространство : YUV
Субдискретизация насыщенности : 4:2:0
Битовая глубина : 8 бит
Тип развёртки : Прогрессивная
Бит/(Пиксели*Кадры) : 0.151
Размер потока : 1,81 Гбайт (67%)
Библиотека кодирования : x264 core 146 r2538 121396c
Настройки программы : cabac=1 / ref=10 / deblock=1:-2:-3 / analyse=0x3:0x113 / me=umh / subme=10 / psy=1 / psy_rd=0.95:0.07 / mixed_ref=1 / me_range=48 / chroma_me=1 / trellis=2 / 8x8dct=1 / cqm=0 / deadzone=21,11 / fast_pskip=1 / chroma_qp_offset=-6 / threads=6 / lookahead_threads=1 / sliced_threads=0 / nr=0 / decimate=1 / interlaced=0 / bluray_compat=0 / constrained_intra=0 / bframes=11 / b_pyramid=2 / b_adapt=2 / b_bias=0 / direct=3 / weightb=1 / open_gop=0 / weightp=2 / keyint=240 / keyint_min=23 / scenecut=40 / intra_refresh=0 / rc_lookahead=40 / rc=2pass / mbtree=0 / bitrate=2045 / ratetol=1.0 / qcomp=0.60 / qpmin=0 / qpmax=69 / qpstep=4 / cplxblur=20.0 / qblur=0.5 / vbv_maxrate=50000 / vbv_bufsize=62500 / nal_hrd=none / filler=0 / ip_ratio=1.40 / pb_ratio=1.30 / aq=1:1.00
Язык : English
Default : Да
Forced : Нет

Аудио #1
Идентификатор : 2
Формат : AC-3
Формат/Информация : Audio Coding 3
Расширение режима : CM (complete main)
Параметр Endianness формата : Big
Идентификатор кодека : A_AC3
Продолжительность : 2 ч. 7 м.
Вид битрейта : Постоянный
Битрейт : 384 Кбит/сек
Каналы : 6 каналов
Расположение каналов : Front: L C R, Side: L R, LFE
Частота : 48,0 КГц
Частота кадров : 31,250 кадров/сек (1536 spf)
Битовая глубина : 16 бит
Метод сжатия : С потерями
Размер потока : 349 Мбайт (13%)
Заголовок : DUB [iTunes]
Язык : Russian
Default : Да
Forced : Нет

Аудио #2
Идентификатор : 3
Формат : AC-3
Формат/Информация : Audio Coding 3
Расширение режима : CM (complete main)
Параметр Endianness формата : Big
Идентификатор кодека : A_AC3
Продолжительность : 2 ч. 7 м.
Вид битрейта : Постоянный
Битрейт : 192 Кбит/сек
Каналы : 2 канала
Расположение каналов : Front: L R
Частота : 48,0 КГц
Частота кадров : 31,250 кадров/сек (1536 spf)
Битовая глубина : 16 бит
Метод сжатия : С потерями
Размер потока : 175 Мбайт (6%)
Заголовок : MVO [HDRezka Studio]
Язык : Russian
Default : Нет
Forced : Нет

Аудио #3
Идентификатор : 4
Формат : AC-3
Формат/Информация : Audio Coding 3
Расширение режима : CM (complete main)
Параметр Endianness формата : Big
Идентификатор кодека : A_AC3
Продолжительность : 2 ч. 7 м.
Вид битрейта : Постоянный
Битрейт : 448 Кбит/сек
Каналы : 6 каналов
Расположение каналов : Front: L C R, Side: L R, LFE
Частота : 48,0 КГц
Частота кадров : 31,250 кадров/сек (1536 spf)
Битовая глубина : 16 бит
Метод сжатия : С потерями
Размер потока : 407 Мбайт (15%)
Заголовок : [Original]
Язык : English
Default : Нет
Forced : Нет

Текст #1
Идентификатор : 5
Формат : UTF-8
Идентификатор кодека : S_TEXT/UTF8
Идентификатор кодека/Информация : UTF-8 Plain Text
Продолжительность : 2 ч. 6 м.
Битрейт : 2 бит/сек
Count of elements : 41
Размер потока : 2,02 Кбайт (0%)
Заголовок : Forced
Язык : Russian
Default : Да
Forced : Нет

Текст #2
Идентификатор : 6
Формат : UTF-8
Идентификатор кодека : S_TEXT/UTF8
Идентификатор кодека/Информация : UTF-8 Plain Text
Продолжительность : 2 ч. 6 м.
Битрейт : 106 бит/сек
Count of elements : 1772
Размер потока : 98,4 Кбайт (0%)
Заголовок : Full
Язык : Russian
Default : Нет
Forced : Нет

Текст #3
Идентификатор : 7
Формат : UTF-8
Идентификатор кодека : S_TEXT/UTF8
Идентификатор кодека/Информация : UTF-8 Plain Text
Продолжительность : 2 ч. 3 м.
Битрейт : 71 бит/сек
Count of elements : 2000
Размер потока : 64,2 Кбайт (0%)
Заголовок : Full
Язык : English
Default : Нет
Forced : Нет

Текст #4
Идентификатор : 8
Формат : UTF-8
Идентификатор кодека : S_TEXT/UTF8
Идентификатор кодека/Информация : UTF-8 Plain Text
Продолжительность : 2 ч. 3 м.
Битрейт : 74 бит/сек
Count of elements : 2080
Размер потока : 67,7 Кбайт (0%)
Заголовок : SDH
Язык : English
Default : Нет
Forced : Нет

Меню
00:00:00.000 : en:1
00:10:09.441 : en:2
00:14:26.196 : en:3
00:24:44.105 : en:4
00:29:02.028 : en:5
00:34:03.329 : en:6
00:42:22.368 : en:7
00:48:29.109 : en:8
00:54:21.377 : en:9
01:01:46.404 : en:10
01:09:03.214 : en:11
01:16:33.747 : en:12
01:24:06.865 : en:13
01:32:46.259 : en:14
01:40:51.702 : en:15
01:47:33.061 : en:16
01:54:05.161 : en:17
02:00:09.483 : en:18
02:03:11.705 : en:19
Релиз от: pb.wtf



Скачать Испытание огнем через торрент https://b.radikal.ru/b36/1910/6d/8f34c115e670.png Скачать фильм Испытание огнем через торрент бесплантно в хорошем качестве Описание: Фильм основан на реальных событиях. История Кэмерона Тодда Уиллингема — бедного бунтаря с криминальным прошлым из небольшого ... 10 10 1
Info! Золотая раздача, скачанное не засчитывается.
Торрент: Зарегистрирован [2019-11-10 14:34] · скачан: 55 раз
Статус: √ проверено
Размер: 2.73 GB
Как cкачать? Как скачать Испытание огнем через торрент | qTorrent

Отключить всю рекламу на сайте
    Дорогой пользователь! Огромная просьба, поблагодарите релизера, оцените раздачу и оставьте свои комментарий, если Вы скачали Испытание огнем через торрент бесплатно! Внесите свою лепту в развитие PiratBit!
    Комментировать посты могут только пользователи прошедшие не сложную регистрацию
    Показать сообщения:    

    Испытание огнем через торрент
    Скачать бесплатно Испытание огнем
    Испытание огнем скачать торрент
    Испытание огнем смотреть онлайн
    Cкачать фильм Испытание огнем бесплатно
    Испытание огнем скачать торрент в хорошем качестве
    Испытание огнем смотреть онлайн бесплатно в хорошем качестве


    Вы не можете начинать темы
    Вы не можете отвечать на сообщения
    Вы не можете редактировать свои сообщения
    Вы не можете удалять свои сообщения
    Вы не можете голосовать в опросах
    Вы не можете прикреплять файлы к сообщениям
    Вы можете скачивать файлы