новый адрес
Ссылка на приватное зеркало всего за 1$. Внимание количество ограничено!!!

iTunes

1+1

iTunes

мы

WEB-DL

1

iTunes

Чернобыль

iTunes

Ральф против интернета

Лицензия

ПШазам

Лицензия

Оно 2

Лицензия

30
pack

Вам бонус

ВАЖНО

!!Акция!!

Alien_RageХит недели

RePack

Resident Evil 21

ИГРА 18+

pack

RePack

jed

!!Акция!!

Alien_Rage

RePack

fifa19

RePack

Assassins Creed: Odyssey

RePack

NEED FOR SPEED™ PAYBACK

3 сезон

9 сезон

Бесстыжие 9 сезон

Все сериалы

все сериалы на PB.wtf

RePack

FAR CRY 5
Ребята, катастрофически не хватает 1900р. для оплаты серверов за Октябрь (всвязи с блокировками трафик упал в 3 раза), 1-2р., выручайте.
  

Дэдвуд / Deadwood (Даниэль Минахан) [2019 г., драма, вестерн, HDRip, Профессиональный (многоголосый) [Amedia]] pb.wtf

Дэдвуд через торрент pb.wtf

Раздают: 4 [ 0 KB/s ]
Размер: 2.18 GB | Добавлен: 28 д. назад | Торрент скачан:93 раза
Скачать  

10-11-2019 18:02 Дэдвуд Скачать торрент  

Дэдвуд / Deadwood

Год выпуска: 2019
Страна: США / Home Box Office (HBO)
Жанр: драма, вестерн
Продолжительность: 01:50:03
Перевод: Профессиональный (многоголосый) [Amedia]
Режиссер: Даниэль Минахан
rating
В ролях: Тимоти Олифант, Иэн Макшейн, Молли Паркер, Паула Малкомсон, У. Эрл Браун, Дэйтон Калли, Ким Диккенс, Брэд Дуриф, Анна Ганн, Джон Хоукс
Описание: В 1889 году поселение Дедвуд наконец получило статус города, но там по-прежнему царит атмосфера беззакония. Выдающийся телевестерн «Дедвуд», закрытый после третьего сезона, возвращается в полнометражной версии, чтобы наконец довести историю до финала. По сюжету герои вестерна встречаются через десять лет после событий третьего сезона, чтобы отпраздновать признание родной Южной Дакоты официальным штатом. Новые времена диктуют свои правила, и в гонке за неизбежными изменениями возродится былое соперничество, а крепкие союзы дадут трещину.
Качество: HDRip
Формат: AVI
Видео кодек: XviD
Аудио кодек: AC3
Видео: 1986 Kb/s, 720x360
Аудио#1: Russian: AC3, 384 Kb/s (6 ch)
Аудио#2: English: AC3, 448 Kb/s (6 ch)


Общее
Полное имя : Deadwood.2019.P.HDRip.2.18GB.avi
Формат : AVI
Формат/Информация : Audio Video Interleave
Профиль формата : OpenDML
Размер файла : 2,18 Гбайт
Продолжительность : 1 ч. 50 м.
Общий поток : 2835 Кбит/сек
Название фильма : D
Программа кодирования : V
Формат оригинала/Имя : K

Видео
Идентификатор : 0
Формат : MPEG-4 Visual
Профиль формата : Advanced Simple@L5
Настройки формата : BVOP2
Параметр BVOP формата : 2
Параметр QPel формата : Нет
Параметр GMC формата : Без точки перехода
Параметр матрицы формата : Default (MPEG)
Идентификатор кодека : XVID
Идентификатор кодека/Подсказка : XviD
Продолжительность : 1 ч. 50 м.
Битрейт : 1986 Кбит/сек
Ширина : 720 пикселей
Высота : 360 пикселей
Соотношение сторон : 2,000
Частота кадров : 23,976 (24000/1001) кадра/сек
Цветовое пространство : YUV
Субдискретизация насыщенности : 4:2:0
Битовая глубина : 8 бит
Тип развёртки : Прогрессивная
Метод сжатия : С потерями
Бит/(Пиксели*Кадры) : 0.320
Размер потока : 1,53 Гбайт (70%)
Библиотека кодирования : XviD 1.2.1 (UTC 2008-12-04)

Аудио #1
Идентификатор : 1
Формат : AC-3
Формат/Информация : Audio Coding 3
Коммерческое название : Dolby Digital
Идентификатор кодека : 2000
Продолжительность : 1 ч. 50 м.
Вид битрейта : Постоянный
Битрейт : 384 Кбит/сек
Каналы : 6 каналов
ChannelLayout : L R C LFE Ls Rs
Частота : 48,0 КГц
Частота кадров : 31,250 кадров/сек (1536 SPF)
Метод сжатия : С потерями
Размер потока : 302 Мбайт (14%)
Выравнивание : Разделение по промежуткам
Продолжительность промежутка : 42 мс. (1,00 видеокадр)
Время предзагрузки промежутка : 500 мс.
ServiceKind/String : Complete Main

Аудио #2
Идентификатор : 2
Формат : AC-3
Формат/Информация : Audio Coding 3
Коммерческое название : Dolby Digital
Идентификатор кодека : 2000
Продолжительность : 1 ч. 50 м.
Вид битрейта : Постоянный
Битрейт : 448 Кбит/сек
Каналы : 6 каналов
ChannelLayout : L R C LFE Ls Rs
Частота : 48,0 КГц
Частота кадров : 31,250 кадров/сек (1536 SPF)
Метод сжатия : С потерями
Размер потока : 353 Мбайт (16%)
Выравнивание : Разделение по промежуткам
Продолжительность промежутка : 42 мс. (1,00 видеокадр)
Время предзагрузки промежутка : 500 мс.
ServiceKind/String : Complete Main

pb.wtf



Скачать Дэдвуд через торрент http://pic1.kartinco.top/images/12/e8mxe.jpg Скачать фильм Дэдвуд через торрент бесплантно в хорошем качестве Описание: В 1889 году поселение Дедвуд наконец получило статус города, но там по-прежнему царит атмосфера беззакония. Выдающийся ... 10 10 4
Торрент: Зарегистрирован [2019-11-10 18:02] · скачан: 93 раз
Статус: √ проверено
Размер: 2.18 GB
Как cкачать? Как скачать Дэдвуд через торрент | qTorrent

% Раздел Тема Автор DL S | L
Фильмы 2019 [DVDrip, WEB-DLRip, HDrip] (DUB, MVO) [ 1.42 GB ] Дэдвуд / Deadwood [2019 BDRip] MVO [Amedia] Twi7ter Скачать
15 | 0
Фильмы [HD 720p, 1080p] (Хороший звук DUB, MVO) [ 10.24 GB ] Дэдвуд / Deadwood [2019 BDRip 1080p] 3xMVO+AVO bober100 Скачать
5 | 0
Фильмы 2019 [DVDrip, WEB-DLRip, HDrip] (DUB, MVO) [ 1.46 GB ] Дэдвуд / Deadwood [2019 BDRip] MVO [Амедиа] bober100 Скачать
6 | 0
Фильмы (Blu-ray, BD-Remux, HDDVD) [ 19.7 GB ] Дэдвуд / Deadwood [2019 BD Remux 1080p] 3xMVO+AVO bober100 Скачать
1 | 1
Фильмы (WEB-DL 720p, 1080p) [ 5.08 GB ] Дэдвуд / Deadwood [2019 WEB-DL 720p] MVO [Амедиа] bober100 Скачать
5 | 0
Зарубежные сериалы [ 38.18 GB ] Дэдвуд / Дедвуд / Deadwood / Сезон: 1-3 / Серии: 01-36 из 36 [2004-2006 BDRip] [AVO] killermax2013 Скачать
1 | 0
Зарубежные сериалы [ 96.13 GB ] Дэдвуд / Дедвуд / Deadwood / Сезон: 1-3 / Серии: 01-36 из 36 [2004-2006 BDRip 720p] [AVO] + [MVO] killermax2013 Скачать
2 | 0

28-11-2019 20:33  

Отключить всю рекламу на сайте

    Дорогой пользователь! Огромная просьба, поблагодарите релизера, оцените раздачу и оставьте свои комментарий, если Вы скачали Дэдвуд через торрент бесплатно! Внесите свою лепту в развитие PiratBit!
    Комментировать посты могут только пользователи прошедшие не сложную регистрацию
    Показать сообщения:    

    Дэдвуд через торрент
    Скачать бесплатно Дэдвуд
    Дэдвуд скачать торрент
    Дэдвуд смотреть онлайн
    Cкачать фильм Дэдвуд бесплатно
    Дэдвуд скачать торрент в хорошем качестве
    Дэдвуд смотреть онлайн бесплатно в хорошем качестве


    Вы не можете начинать темы
    Вы не можете отвечать на сообщения
    Вы не можете редактировать свои сообщения
    Вы не можете удалять свои сообщения
    Вы не можете голосовать в опросах
    Вы не можете прикреплять файлы к сообщениям
    Вы можете скачивать файлы