Ссылка на приватное зеркало всего за 1$. Внимание количество ограничено!!!

iTunes

iTunes

iTunes

1

iTunes

iTunes

iTunes

iTunes

iTunes

30
pack

$ от Little Big

ВАЖНО

!!Акция!!

Alien_RageХит недели

RePack

Resident Evil 21

ИГРА 18+

pack

RePack

jed

!!Акция!!

Alien_Rage

RePack

fifa19

RePack

Assassins Creed: Odyssey

RePack

NEED FOR SPEED™ PAYBACK

4 сезон

9 сезон

Бесстыжие 9 сезон

Все сериалы

все сериалы на PB.wtf

RePack

FAR CRY 5
  

Видеть / See / Сезон: 1 / Серии: 1-8 из 8 (Френсис Лоуренс, Андерс Энгстрем, Стивен Серджик) [2019, фантастика, боевик, драма, WEB-DLRip] MVO [TVShows] pb.wtf

Видеть через торрент pb.wtf

Размер: 7.21 GB | Добавлен: 5 мес. 25 д. назад | Торрент скачан:43 раза
Скачать  

10-11-2019 18:26 Видеть Скачать торрент  

Видеть | See Год выпуска: 2019
Страна: США
Жанр: фантастика, боевик, драма
Продолжительность: ~ 00:55:00
Перевод: Профессиональный (многоголосый закадровый) | TVShows
Субтитры: нет

Режиссёр: Френсис Лоуренс, Андерс Энгстрем, Стивен Серджик

В ролях: Элфри Вудард, Джейсон Момоа, Сильвия Хукс, Хера Хильмар, Кристиан Камарго, Арчи Мадекве, Неста Купер, Джош Блэкер, Кристиан Слоун, Моджиан Ариа, Мэрили Токингтон, Хиро Канагава, Танту Кардинал, Питер Брайант, Люк Родерик и др.

Описание: В далёком будущем человеческая раса полностью лишилась зрения. Чтобы выжить, людям пришлось найти новый способ сосуществовать, строить и добывать пищу. Всё меняется, когда в семье бесстрашного воина Бабы Восса рождаются зрячие близнецы. Их появление рискует нарушить хрупкий баланс нового мира и ввергнуть успокоившуюся цивилизацию в хаос.



Качество: WEB-DLRip
Формат: AVI

Видео: XVID, 704x336, 23.976 fps, 2000 kbps avg, 0.35 bit/pixel
Аудио Rus: AC3, 48.0 KHz, 6 channels, 384 kbps


Реклама отсутствует
General
Complete name : D:\Сериалы\Видеть (Сезон 1) TVShows\See.S01E01.WEB-DLRip.RGzsRutracker.Celta88.avi
Format : AVI
Format/Info : Audio Video Interleave
File size : 984 MiB
Duration : 57 min 30 s
Overall bit rate : 2 393 kb/s
Writing application : VirtualDubMod 1.5.10.3 | www.virtualdub-fr.org || (build 2550/release)
Writing library : VirtualDubMod build 2550/release

Video
ID : 0
Format : MPEG-4 Visual
Format profile : Advanced Simple@L5
Format settings, BVOP : 1
Format settings, QPel : No
Format settings, GMC : No warppoints
Format settings, Matrix : Custom
Codec ID : XVID
Codec ID/Hint : XviD
Duration : 57 min 30 s
Bit rate : 2 000 kb/s
Width : 704 pixels
Height : 336 pixels
Display aspect ratio : 2.095
Frame rate : 23.976 (24000/1001) FPS
Color space : YUV
Chroma subsampling : 4:2:0
Bit depth : 8 bits
Scan type : Progressive
Compression mode : Lossy
Bits/(Pixel*Frame) : 0.353
Stream size : 823 MiB (84%)
Writing library : XviD 73

Audio
ID : 1
Format : AC-3
Format/Info : Audio Coding 3
Mode extension : CM (complete main)
Format settings, Endianness : Big
Codec ID : 2000
Duration : 57 min 30 s
Bit rate mode : Constant
Bit rate : 384 kb/s
Channel(s) : 6 channels
Channel positions : Front: L C R, Side: L R, LFE
Sampling rate : 48.0 kHz
Frame rate : 31.250 FPS (1536 spf)
Bit depth : 16 bits
Compression mode : Lossy
Stream size : 158 MiB (16%)
Alignment : Split accross interleaves
Interleave, duration : 42 ms (1.00 video frame)
Interleave, preload duratio : 500 ms
Внимание! Раздача ведётся путём добавления новых серий; при каждом добавлении создаётся новый торрент.
Чтобы начать докачку новой серии, пользователям необходимо сделать следующее:
1. Остановить скачивание.
2. Удалить старый торрент у себя из клиента (старые серии удалять не надо).
3. Скачать новый торрент и запустить его у себя в клиенте вместо старого, при этом указать клиенту путь в старую папку куда и должно происходить скачивание новых серий.
Ваш клиент при этом должен произвести хеширование (проверку) старой папки (если не производит сам - помогите ему сделать это), и будет докачивать только те серии которых у вас ещё нет. Старые серии при этом не удаляются, а продолжают раздаваться!
Eсли вы уже удалили старые серии, то предотвратить повторную закачку старых серий можно, отжав галочку в соответствующих местах при запуске нового торрента.
pb.wtf



Скачать Видеть через торрент https://d.radikal.ru/d07/1911/d2/264a1a04e8e9.png Скачать фильм Видеть через торрент бесплантно в хорошем качестве Описание: В далёком будущем человеческая раса полностью лишилась зрения. Чтобы выжить, людям пришлось найти новый способ сосуществовать, ... 10 10 7
Торрент: Зарегистрирован [2019-12-08 16:35] · скачан: 43 раз
Статус: √ проверено
Размер: 7.21 GB
Как cкачать? Как скачать Видеть через торрент | qTorrent

% Раздел Тема Автор DL S | L
Зарубежные сериалы [ 37.22 GB ] Видеть / See / Сезон: 1 / Серии: 1-8 из 8 [2019 WEB-DL 1080p] MVO [Lostfilm] +DVO [Кубик в Кубе] bober100 Скачать
3 | 0
Зарубежные сериалы [ 28.25 GB ] Видеть / See / Сезон: 1 / Серии: 1-8 из 8 [2019 WEBRip 1080p] DVO [Gears Media] bober100 Скачать
1 | 0
Зарубежные сериалы [ 10.23 GB ] Видеть / See / Сезон: 1 / Серии: 1-8 из 8 [2019 WEBRip 720p] DVO [Gears Media] bober100 Скачать
1 | 0
Зарубежные сериалы [ 5.06 GB ] Видеть / See / Сезон: 1 / Серии: 1-8 из 8 [2019 WEBRip] [MVO] killermax2013 Скачать
1 | 0
Зарубежные сериалы [ 18.54 GB ] Видеть / See / Сезон: 1 / Серии: 1-8 из 8 [2019 WEBRip 1080p] [MVO] killermax2013 Скачать
1 | 0
Зарубежные сериалы [ 13.19 GB ] Видеть / See / Сезон: 1 / Серии: 1-8 из 8 [2019 WEB-DL 720p] [DVO] killermax2013 Скачать
1 | 0
Зарубежные сериалы [ 32.49 GB ] Видеть / See / Сезон: 1 / Серии: 1-8 из 8 [2019 WEB-DL 1080p] MVO [Lostfilm] bober100 Скачать
1 | 0

28-11-2019 20:33  

Отключить всю рекламу на сайте

    Дорогой пользователь! Огромная просьба, поблагодарите релизера, оцените раздачу и оставьте свои комментарий, если Вы скачали Видеть через торрент бесплатно! Внесите свою лепту в развитие PiratBit!
    Комментировать посты могут только пользователи прошедшие не сложную регистрацию
    Показать сообщения:    

    Видеть через торрент
    Скачать бесплатно Видеть
    Видеть скачать торрент
    Видеть смотреть онлайн
    Cкачать фильм Видеть бесплатно
    Видеть скачать торрент в хорошем качестве
    Видеть смотреть онлайн бесплатно в хорошем качестве


    Вы не можете начинать темы
    Вы не можете отвечать на сообщения
    Вы не можете редактировать свои сообщения
    Вы не можете удалять свои сообщения
    Вы не можете голосовать в опросах
    Вы не можете прикреплять файлы к сообщениям
    Вы можете скачивать файлы