новый адрес пиратбит piratbit
Мега распродажа FORZA HORIZON 4 ULTIMATE+ВСЕ DLC+ОНЛАЙН всего за 499р. 349 руб. (супер цена). Внимание количество ограничено!!!

iTunes

1+1

iTunes

мы

iTunes

1

iTunes

Чернобыль

iTunes

Ральф против интернета

Лицензия

ПШазам

Лицензия

Игра престолов

Лицензия

30
pack

ВАЖНО

!!Акция!!

Alien_RageХит недели

RePack

Resident Evil 21

ИГРА 18+

pack

RePack

Metro:Exodus

!!Акция!!

Alien_Rage

RePack

fifa19

RePack

Assassins Creed: Odyssey

RePack

NEED FOR SPEED™ PAYBACK

3 сезон

9 сезон

Бесстыжие 9 сезон

Все сериалы

все сериалы на PB.wtf

RePack

FAR CRY 5
Ребята, катастрофически не хватает 1900р. для оплаты серверов за Октябрь (всвязи с блокировками трафик упал в 3 раза), 1-2р., выручайте.
  

Больница Никербокер / The Knick / Сезон: 1-2 / Серии 1-20 из 20 (Стивен Содерберг) [2014-2015, драма, HDTV 720p] [MVO] (AlexFilm) pb.wtf

Больница Никербокер через торрент pb.wtf

Раздают: 1 [ 0.3 KB/s ] Качают: 1 [ 0 KB/s ]
Размер: 38.92 GB | Добавлен: 3 д. назад | Торрент скачан:3 раза
Скачать  

10-11-2019 18:31 Больница Никербокер Скачать торрент  


Больница Никербокер / The Knick


Год выпуска: 2014-2015
Страна: США
Жанр: драма
Продолжительность: 1 x ~ 00:55:00
Озвучание: Профессиональное (многоголосое, закадровое) (AlexFilm)
Субтитры: нет

Режиссёр: Стивен Содерберг

В ролях: Клайв Оуэн, Эрик Джонсон, Майкл Ангарано, Андре Холлэнд, Джульетта Райлэнс, Крис Салливан, Ив Хьюсон, Кэра Сеймур, Джереми Бобб, Грейнджер Хайнс, Сюзанна Савой

Описание: Начало XX века. Доктор Джон У. Такер - хирург в нью-йоркской больнице «Никербокер». Здесь применяют передовые методы и стараются помочь всем пациентам. Но до изобретения лазерного скальпеля и компьютерной томографии еще очень далеко, а в карету скорой помощи запрягают лошадей. Врачи, медицинские сестры и другой персонал больницы делают все возможное, стараясь спасти людей.
Релиз:
Перевод: Константин Кривоногов

Монтаж и сведение звука: Дмитрий Рыбин

Роли озвучивали:Евгения Тихонова
Михаил Суслов
Владимир Курдов
Сергей Пономарёв

rating

Качество: HDTV 720p
Формат: MKV
Видео: 1280x720 (16:9), 23.976 fps, MPEG-4 AVC ~3 800 kbps avg
Аудио Rus: 48 kHz, AC3 Dolby Digital, 3/2 (L,C,R,l,r) + LFE ch, ~384.00 kbps
Аудио Eng: 48 kHz, AC3 Dolby Digital, 3/2 (L,C,R,l,r) + LFE ch, ~384.00 kbps
скриншот  скриншот  скриншот  
General
Unique ID : 186243806807089970341068739819602905877 (0x8C1D40A079706D52B93D8DCBC4CF0B15)
Complete name : E:\The.Knick_Sergio\The Knick - Season 2 (AlexFilm) HDTV 720p\The.Knick.s02e10.HDTV.720.Rus.Eng.AlexFilm.mkv
Format : Matroska
Format version : Version 4 / Version 2
File size : 1.82 GiB
Duration : 56 min 0 s
Overall bit rate : 4 655 kb/s
Movie name : The Knick. 2x10 @ AlexFilm
Encoded date : UTC 2015-12-24 19:49:50
Writing application : mkvmerge v7.1.0 ('Good Love') 64bit built on Jul 27 2014 13:06:55
Writing library : libebml v1.3.0 + libmatroska v1.4.1

Video
ID : 1
Format : AVC
Format/Info : Advanced Video Codec
Format profile : High@L4.1
Format settings : CABAC / 9 Ref Frames
Format settings, CABAC : Yes
Format settings, RefFrames : 9 frames
Codec ID : V_MPEG4/ISO/AVC
Duration : 56 min 0 s
Bit rate : 3 794 kb/s
Width : 1 280 pixels
Height : 720 pixels
Display aspect ratio : 16:9
Frame rate mode : Constant
Frame rate : 23.976 (23976/1000) FPS
Color space : YUV
Chroma subsampling : 4:2:0
Bit depth : 8 bits
Scan type : Progressive
Bits/(Pixel*Frame) : 0.172
Stream size : 1.48 GiB (82%)
Writing library : x264 core 148 r2638 7599210
Encoding settings : cabac=1 / ref=9 / deblock=1:-3:-3 / analyse=0x3:0x133 / me=umh / subme=11 / psy=1 / psy_rd=1.00:0.05 / mixed_ref=1 / me_range=48 / chroma_me=1 / trellis=2 / 8x8dct=1 / cqm=0 / deadzone=21,11 / fast_pskip=0 / chroma_qp_offset=-3 / threads=12 / lookahead_threads=2 / sliced_threads=0 / nr=0 / decimate=1 / interlaced=0 / bluray_compat=0 / constrained_intra=0 / bframes=8 / b_pyramid=2 / b_adapt=2 / b_bias=0 / direct=3 / weightb=1 / open_gop=0 / weightp=2 / keyint=240 / keyint_min=24 / scenecut=40 / intra_refresh=0 / rc=crf / mbtree=0 / crf=17.0 / qcomp=0.80 / qpmin=0 / qpmax=69 / qpstep=4 / ip_ratio=1.40 / pb_ratio=1.30 / aq=3:1.00
Language : English
Default : Yes
Forced : No

Audio #1
ID : 2
Format : AC-3
Format/Info : Audio Coding 3
Format settings, Endianness : Big
Codec ID : A_AC3
Duration : 56 min 0 s
Bit rate mode : Constant
Bit rate : 384 kb/s
Channel(s) : 6 channels
Channel positions : Front: L C R, Side: L R, LFE
Sampling rate : 48.0 kHz
Frame rate : 31.250 FPS (1536 SPF)
Bit depth : 16 bits
Compression mode : Lossy
Stream size : 154 MiB (8%)
Title : DD5.1 AlexFilm
Language : Russian
Service kind : Complete Main
Default : Yes
Forced : No

Audio #2
ID : 3
Format : AC-3
Format/Info : Audio Coding 3
Format settings, Endianness : Big
Codec ID : A_AC3
Duration : 56 min 0 s
Bit rate mode : Constant
Bit rate : 384 kb/s
Channel(s) : 6 channels
Channel positions : Front: L C R, Side: L R, LFE
Sampling rate : 48.0 kHz
Frame rate : 31.250 FPS (1536 SPF)
Bit depth : 16 bits
Compression mode : Lossy
Stream size : 154 MiB (8%)
Title : DD5.1 Original
Language : English
Service kind : Complete Main
Default : No
Forced : No

pb.wtf



Скачать Больница Никербокер через торрент https://i111.fastpic.ru/big/2019/1110/2c/eb933124a4e063311faf002a54dc4e2c.jpg Скачать фильм Больница Никербокер через торрент бесплантно в хорошем качестве Описание: Начало XX века. Доктор Джон У. Такер - хирург в нью-йоркской больнице «Никербокер». Здесь применяют передовые методы и стараются ... 10 10 2
Торрент: Зарегистрирован [2019-11-10 18:31] · скачан: 3 раз
Статус: √ проверено
Размер: 38.92 GB
Как cкачать? Как скачать Больница Никербокер через торрент | qTorrent

% Раздел Тема Автор DL S | L
Зарубежные сериалы [ 18.38 GB ] Больница Никербокер / The Knick / Сезон: 2 / Серии 1-10 из 10 [2015 HDTV 720p] [MVO] killermax2013 Скачать
1 | 0
Зарубежные сериалы [ 8.46 GB ] Больница Никербокер / The Knick / Сезон: 2 / Серии 1-9 из 10 [2015 HDTVRip-AVC MVO] [BaibaKo] GEKADOL Скачать
1 | 0


>> Регистрируемся здесь <<






Отзывы и комментарии о схеме читаем и пишем здесь: ---> Отзывы и комментарии о схеме

Новые благодарочки в телеграм довольных пользователей:
скриншот   скриншот   скриншот   скриншот   скриншот

10-11-2019 20:02 Больница Никербокер Скачать торрент  

клевый сериал, я было подумал продолжение вышлоpb.wtf



    Дорогой пользователь! Огромная просьба, поблагодарите релизера, оцените раздачу и оставьте свои комментарий, если Вы скачали Больница Никербокер через торрент бесплатно! Внесите свою лепту в развитие PiratBit!
    Комментировать посты могут только пользователи прошедшие не сложную регистрацию
    Показать сообщения:    

    Больница Никербокер через торрент
    Скачать бесплатно Больница Никербокер
    Больница Никербокер скачать торрент
    Больница Никербокер смотреть онлайн
    Cкачать фильм Больница Никербокер бесплатно
    Больница Никербокер скачать торрент в хорошем качестве
    Больница Никербокер смотреть онлайн бесплатно в хорошем качестве


    Вы не можете начинать темы
    Вы не можете отвечать на сообщения
    Вы не можете редактировать свои сообщения
    Вы не можете удалять свои сообщения
    Вы не можете голосовать в опросах
    Вы не можете прикреплять файлы к сообщениям
    Вы можете скачивать файлы