2 сезон

iTunes

1 сезон

1

iTunes

iTunes

iTunes

1 сезон

RePack

30

ИГРА 18+

pack

ВАЖНО

!!Акция!!

Alien_RageХит недели

RePack

MK11
pack

Забери бонус

RePack

jed

!!Акция!!

Alien_Rage

RePack

fifa19

RePack

Assassins Creed: Odyssey

RePack

NEED FOR SPEED™ PAYBACK

4 сезон

9 сезон

Бесстыжие 9 сезон

Все сериалы

все сериалы на PB.wtf

RePack

FAR CRY 5
  

Нет жизни без тебя / Серии: 1-2 из 2 (Елена Яковлева) [2019, Мелодрама, HDTV 1080i] pb.wtf

Нет жизни без тебя через торрент pb.wtf

Раздают: 1 [ 0 KB/s ]
Размер: 9.76 GB | Добавлен: 11 мес. назад | Торрент скачан:4 раза
Скачать  

10-11-2019 20:09 Нет жизни без тебя Скачать торрент  

Нет жизни без тебя
Год выпуска: 2019
Производство: Россия, НАО «Кинокомпания Русское»
Жанр: Мелодрама
Продолжительность: ~ 01:30:00
Субтитры: Отсутствуют

Режиссёр: Елена Яковлева (III)



В ролях: Елена Аросьева, Павел Савинков, Евгений Шириков, Кристина Кучеренко, Михаил Гаврилов (II), Людмила Чиркова, Линда Лапиньш, Александр Сергеев (IV)

Описание: Светлана – идеальная жена. Смысл всей её жизни – это дом и счастье мужа Кости. Ради этого она даже отказалась от любимой работы музыкального педагога. Счастье омрачает лишь одно обстоятельство. Она никак не может забеременеть. А тем временем Косте наскучили забота жены и многолетняя семейная рутина. Ему не хватает в жизни новых острых ощущений. И как только на работе появляется новая коллега – эффектная молодая женщина Кира, у Кости с ней сразу вспыхивает роман. Он тут же без сожаления бросает Свету, которая не может даже представить своей жизни без него…

Качество: HDTV 1080i
Формат: TS

Видео: MPEG-4 AVC, ~ 7100 Кбит/с, 1920x1080, 25 кадр/с
Аудио: Русский (MP2, 2 ch, 192 Кбит/с)
скриншот  скриншот  скриншот  скриншот  

Общее
Идентификатор : 1 (0x1)
Полное имя : C:\Net.zhizni.bez.tebya.2019.HDTV.1080i\Net.zhizni.bez.tebya.01.2019.HDTV.1080i.ts
Формат : MPEG-TS
Размер файла : 4,83 Гбайт
Продолжительность : 1 ч. 30 м.
Режим общего битрейта : Переменный
Общий поток : 7654 Кбит/сек

Видео
Идентификатор : 2911 (0xB5F)
Идентификатор меню : 1357 (0x54D)
Формат : AVC
Формат/Информация : Advanced Video Codec
Профиль формата : High@L4
Настройки формата : CABAC / 4 Ref Frames
Параметр CABAC формата : Да
Параметр RefFrames формата : 4 кадра
Идентификатор кодека : 27
Продолжительность : 1 ч. 30 м.
Битрейт : 7082 Кбит/сек
Ширина : 1920 пикселей
Высота : 1080 пикселей
Соотношение сторон : 16:9
Частота кадров : 25,000 кадров/сек
Цветовое пространство : YUV
Субдискретизация насыщенности : 4:2:0
Битовая глубина : 8 бит
Тип развёртки : MBAFF
Метод сохранения типа развёртки : Чередующиеся поля
Порядок развёртки : Верхнее поле первое
Бит/(Пиксели*Кадры) : 0.137
Размер потока : 4,47 Гбайт (93%)

Аудио
Идентификатор : 2912 (0xB60)
Идентификатор меню : 1357 (0x54D)
Формат : MPEG Audio
Версия формата : Version 1
Профиль формата : Layer 2
Идентификатор кодека : 3
Продолжительность : 1 ч. 30 м.
Вид битрейта : Постоянный
Битрейт : 192 Кбит/сек
Каналы : 2 канала
Частота : 48,0 КГц
Частота кадров : 41,667 кадра/сек (1152 SPF)
Метод сжатия : С потерями
Размер потока : 124 Мбайт (3%)
Язык : Russian

pb.wtf



Скачать Нет жизни без тебя через торрент https://d.radikal.ru/d12/1911/4f/96dbeefb78e4.jpg Скачать фильм Нет жизни без тебя через торрент бесплантно в хорошем качестве Описание: Светлана – идеальная жена. Смысл всей её жизни – это дом и счастье мужа Кости. Ради этого она даже отказалась от любимой работы ... 10 10 2
Торрент: Зарегистрирован [2019-11-10 20:09] · скачан: 4 раз
Статус: √ проверено
Размер: 9.76 GB
Как cкачать? Как скачать Нет жизни без тебя через торрент | qTorrent

% Раздел Тема Автор DL S | L
Наши сериалы [ 4.71 GB ] Нет жизни без тебя / Серии: 1-2 из 2 [2019 Мело HDTVRip 720p] bober100 Скачать
1 | 0
Наши сериалы [ 2.29 GB ] Нет жизни без тебя / Серии: 1-2 из 2 [2019 Мело WEBRip-AVC] bober100 Скачать
1 | 0
Наши сериалы [ 2.74 GB ] Нет жизни без тебя / Серии: 1-2 из 2 [2019 Мело HDTVRip] bober100 Скачать
1 | 0
Наши сериалы [ 2.42 GB ] Нет жизни без тебя / Серии: 1-2 из 2 [2019 Мело SATRip] bober100 Скачать
1 | 0

28-11-2019 20:33  

Отключить всю рекламу на сайте

    Дорогой пользователь! Огромная просьба, поблагодарите релизера, оцените раздачу и оставьте свои комментарий, если Вы скачали Нет жизни без тебя через торрент бесплатно! Внесите свою лепту в развитие PiratBit!
    Комментировать посты могут только пользователи прошедшие не сложную регистрацию
    Показать сообщения:    

    Нет жизни без тебя через торрент
    Скачать бесплатно Нет жизни без тебя
    Нет жизни без тебя скачать торрент
    Нет жизни без тебя смотреть онлайн
    Cкачать фильм Нет жизни без тебя бесплатно
    Нет жизни без тебя скачать торрент в хорошем качестве
    Нет жизни без тебя смотреть онлайн бесплатно в хорошем качестве


    Вы не можете начинать темы
    Вы не можете отвечать на сообщения
    Вы не можете редактировать свои сообщения
    Вы не можете удалять свои сообщения
    Вы не можете голосовать в опросах
    Вы не можете прикреплять файлы к сообщениям
    Вы можете скачивать файлы